小众纪录片影视聚合

 找回密码
 立即注册
查看: 7|回复: 0

[蓝光电影] [2023][大陆][动作][WEB-4K]画江湖之天罡[杜比视界版本][国语音轨/中文字幕].The.Legend.2023.2160p.WEB-DL.H265.DV.DDP2.0- 7.16

[复制链接]

112万

主题

112万

帖子

112万

积分

超级版主

Rank: 8Rank: 8

积分
1128817
发表于 2024-7-9 21:09:28 | 显示全部楼层 |阅读模式


[2023][大陆][动作][WEB-4K]画江湖之天罡[杜比视界版本][国语音轨/中文字幕].The.Legend.2023.2160p.WEB-DL.H265.DV.DDP2.0- 7.16

完整标题:画江湖之天罡[杜比视界版本][国语音轨/中文字幕].The.Legend.2023.2160p.WEB-DL.H265.DV.DDP2.0-GPTHD 7.16GB
◎标  题 画江湖之天罡
◎译  名 画江湖之天罡传 / The Legend
◎年  代 2023
◎产  地 中国大陆
◎类  别 动作 / 动画 / 武侠
◎语  言 汉语普通话
◎上映日期 2023-12-29(中国大陆网络)
◎IMDb链接 https://www.imdb.com/title//
◎豆瓣链接 https://movie.douban.com/subject/36066128/
◎导  演 周飞龙 Feilong Zhou
       任伟杰 Weijie Ren
◎编  剧 连洁 Jie Lian
       李皖青 Wanqing Li
       舒奕橙 Yicheng Shu
◎简  介
    大周年间,时局动荡,奸臣当道。直属帝王的秘密暗杀组织不良人一夜之间突然群龙无首,不良帅袁天罡留下一纸书信辞官而去。失去人生方向的袁天罡,在好友李淳风留下的锦囊的指引下,来到了长安安乐阁,却不曾想到此地竟是风月之所。而接下来发生的一切,随着寻求自由之人、寻求不死之人、寻求权力之人的逐一登场,为袁天罡的旅途拉开了新的序幕……
点击图片可查看大图
软字幕无法在截图上展现,HDR版本/杜比视界版本截图会出现颜色异常,请使用支持的设备播放!
##### MediaInfo ######
General
Complete name                            : 画江湖之天罡.The.Legend.2023.2160p.WEB-DL.H265.DV.DDP2.0-GPTHD.mp4
Duration                                 : 1 h 41 min
Overall bit rate mode                    : Variable
Overall bit rate                         : 10.1 Mb/s
Video
ID                                       : 1
Format                                   : HEVC
Format/Info                              : High Efficiency Video Coding
Format profile                           : Main 10@L5@Main
HDR format                               : Dolby Vision, Version 1.0, dvhe.05.06, BL+RPU
Codec ID                                 : dvhe
Codec ID/Info                            : High Efficiency Video Coding with Dolby Vision
Duration                                 : 1 h 41 min
Bit rate                                 : 9 631 kb/s
Width                                    : 3 840 pixels
Height                                   : 1 600 pixels
Display aspect ratio                     : 2.40:1
Frame rate mode                          : Constant
Frame rate                               : 25.000 FPS
Color space                              : YUV
Chroma subsampling                       : 4:2:0
Bit depth                                : 10 bits
Bits/(Pixel*Frame)                       : 0.063
Stream size                              : 6.80 GiB (95%)
Default                                  : Yes
Alternate group                          : 1
Encoded date                             : UTC 2023-12-29 06:20:46
Tagged date                              : UTC 2023-12-29 06:20:46
Color range                              : Full
Codec configuration box                  : hvcC+dvcC
Audio #1
ID                                       : 2
Format                                   : E-AC-3
Format/Info                              : Enhanced AC-3
Commercial name                          : Dolby Digital Plus
Codec ID                                 : ec-3
Duration                                 : 1 h 41 min
Bit rate mode                            : Constant
Bit rate                                 : 256 kb/s
Channel(s)                               : 2 channels
Channel layout                           : L R
Sampling rate                            : 48.0 kHz
Frame rate                               : 31.250 FPS (1536 SPF)
Compression mode                         : Lossy
Stream size                              : 185 MiB (3%)
Language                                 : Chinese
Service kind                             : Complete Main
Default                                  : Yes
Alternate group                          : 2
Encoded date                             : UTC 2023-12-29 06:20:46
Tagged date                              : UTC 2023-12-29 06:20:46
Audio #2
ID                                       : 3
Format                                   : AAC LC
Format/Info                              : Advanced Audio Codec Low Complexity
Codec ID                                 : mp4a-40-2
Duration                                 : 1 h 41 min
Bit rate mode                            : Variable
Bit rate                                 : 253 kb/s
Maximum bit rate                         : 258 kb/s
Channel(s)                               : 2 channels
Channel layout                           : L R
Sampling rate                            : 48.0 kHz
Frame rate                               : 46.875 FPS (1024 SPF)
Compression mode                         : Lossy
Stream size                              : 183 MiB (2%)
Language                                 : Chinese
Default                                  : No
Alternate group                          : 2
Encoded date                             : UTC 2023-12-29 06:20:46
Tagged date                              : UTC 2023-12-29 06:20:46
部分资源为软字幕,移动端推荐播放器:MxPlayer,nPlayer,infuse ,其他播放器请自行尝试。
部分资源为软字幕,电脑端推荐播放器:PotPlayer,完美解码,KMPLAYER,其他播放器请自行尝试。






~~~~~~~~~~~~~~~~~~~~~~~~~~~~~~~~~~~~~~~~~
[2023][大陆][动作][WEB-4K]画江湖之天罡[杜比视界版本][国语音轨/中文字幕].The.Legend.2023.2160p.WEB-DL.H265.DV.DDP2.0- 7.16

【文件列表】:


The.Legend.2023.2160p.WEB-DL.H265.DV.DDP2.0-GPTHD.



【下载地址列表】:


游客
文件下载链接就在这里,在您回复评论成功后才能显示。
请勿回复无意义的灌水内容。


下拉页面到最底部回复或者【点击此处快捷回复】,回复后返回此处即可查看下载链接。
如您没注册本站会员,可以点击注册本站,注册后即可回复下载。



软字幕无法在截图上展现,HDR版本/杜比视界版本截图会出现颜色异常,请使用支持的设备播放!






[img][/img]






[img][/img]

(HDR版本/杜比视界版本,截图会出现颜色异常,请使用支持的设备播放)

小贴士:【影视自媒体解说文案请移步:夏至文案解说网 www.xiazhi.vip

上一篇:[2015][其它][剧情][BD-1080P]年轻气盛[简繁字幕].Youth.2015.ITA.BluRay.1080p.DTS.2Audio.x264- 11.22GB
下一篇:[2017][大陆][悬疑][WEB-4K]记忆大师[杜比视界版本][国语配音/中文字幕].Battle.of.Memories.2017.2160p.WEB-DL.H265.DV.DDP5.1.Atmo
回复

使用道具 举报

您需要登录后才可以回帖 登录 | 立即注册

本版积分规则

Archiver|手机版|小众纪录片影视聚合

GMT+8, 2024-7-17 00:38 , Processed in 0.280015 second(s), 13 queries , Gzip On, Redis On.

Powered by 小众纪录片影视聚合 @2010-2023

Copyright © 2010-2024, https://www.xzjlp.com/.


免责说明:本站所有内容链接、图文介绍等均来自于互联网网友分享,本站仅支持web页面展示和文字介绍,绝不提供在线观看和存储服务,也不参与录制、上传、压片。若本站收录内容无意侵犯贵司版权,请发邮件到【a885185#163.com】联系本站,我们将在第一时间删除侵权内容。谢谢!

快速回复 返回顶部 返回列表