小众纪录片影视聚合

 找回密码
 立即注册
查看: 6|回复: 0

[蓝光电影] [2023][欧美][动作][WEB-4K]同情恶魔[中文字幕].Sympathy.for.the.Devil.2023.2160p.UHD.BluRay.x265.10bit.DTS.HD.MA5.1-

[复制链接]

113万

主题

113万

帖子

113万

积分

超级版主

Rank: 8Rank: 8

积分
1134816
发表于 2024-7-9 21:10:29 | 显示全部楼层 |阅读模式


[2023][欧美][动作][WEB-4K]同情恶魔[中文字幕].Sympathy.for.the.Devil.2023.2160p.UHD.BluRay.x265.10bit.DTS.HD.MA5.1-

完整标题:同情恶魔[中文字幕].Sympathy.for.the.Devil.2023.2160p.UHD.BluRay.x265.10bit.DTS.HD.MA5.1-NukeHD 18.97GB
◎标  题 同情恶魔
◎译  名 地獄來的乘客
◎片  名 Sympathy for the Devil
◎年  代 2023
◎产  地 美国
◎类  别 动作 / 惊悚
◎语  言 英语
◎上映日期 2023-07-28(美国)
◎IMDb评分 5.5/10 (7230人评价)
◎IMDb链接 https://www.imdb.com/title/tt21991654/
◎豆瓣评分 4.8/10 (664人评价)
◎豆瓣链接 https://movie.douban.com/subject/36088902/
◎片  长 90分钟
◎导  演 尤瓦尔·阿德勒 Yuval Adler
◎编  剧 卢克·帕拉迪斯 Luke Paradise
◎演  员 尼古拉斯·凯奇 Nicolas Cage
       乔尔·金纳曼 Joel Kinnaman
       亚历克西斯·佐利科夫 Alexis Zollicoffer
       卡梅伦·李·普莱斯 Cameron Lee Price
       奥利弗·麦克卡勒姆 Oliver McCallum
       伯恩斯·伯恩斯 Burns Burns
       里奇·霍普金斯 Rich Hopkins
       南希·古德 Nancy Good
       凯维·莱曼-默塞尤 Kaiwi Lyman-Mersereau
◎简  介
    尼古拉斯·凯奇和乔尔·金纳曼将主演心理惊悚片《同情恶魔》(Sympathy for the Devil),尤瓦尔·阿德勒(《生死狙击》《女特工》)执导,卢克·帕拉迪斯编剧,正在拉斯维加斯拍摄中。                                    讲述一名司机(金纳曼)在被迫为一名神秘男子乘客(凯奇)开车后,发现自己陷入了一场高风险的猫鼠游戏,开启惊险刺激的旅程。
点击图片可查看大图
软字幕无法在截图上展现,HDR版本/杜比视界版本截图会出现颜色异常,请使用支持的设备播放!
##### MediaInfo ######
General
Unique ID                                : 145922362886253043236250483541177136086 (0x6DC79FF4747BFBD7060E44446001F3D6)
Complete name                            : Sympathy.for.the.Devil.2023.2160p.UHD.BluRay.x265.10bit.DTS.HD.MA5.1-NukeHD.mkv
Duration                                 : 1 h 30 min
Overall bit rate mode                    : Variable
Overall bit rate                         : 30.1 Mb/s
Video
ID                                       : 1
ID in the original source medium         : 4113 (0x1011)
Format                                   : HEVC
Format/Info                              : High Efficiency Video Coding
Format profile                           : Main [email protected]@Main
Codec ID                                 : V_MPEGH/ISO/HEVC
Duration                                 : 1 h 30 min
Bit rate                                 : 21.6 Mb/s
Width                                    : 3 840 pixels
Height                                   : 2 160 pixels
Display aspect ratio                     : 16:9
Frame rate mode                          : Constant
Frame rate                               : 23.976 (24000/1001) FPS
Color space                              : YUV
Chroma subsampling                       : 4:2:0 (Type 2)
Bit depth                                : 10 bits
Bits/(Pixel*Frame)                       : 0.108
Stream size                              : 13.6 GiB (72%)
Writing library                          : x265 3.5+100-8f18e3ad3:[Windows][GCC 5.4.0][64 bit] 10bit
Encoding settings                        : cpuid=1111039 / frame-threads=6 / numa-pools=32,32 / wpp / no-pmode / no-pme / no-psnr / no-ssim / log-level=2 / input-csp=1 / input-res=3840x2160 / interlace=0 / total-frames=0 / level-idc=51 / high-tier=1 / uhd-bd=0 / ref=4 / no-allow-non-conformance / no-repeat-headers / annexb / no-aud / no-eob / no-eos / no-hrd / info / hash=0 / temporal-layers=0 / no-open-gop / min-keyint=1 / keyint=240 / gop-lookahead=0 / bframes=4 / b-adapt=2 / b-pyramid / bframe-bias=0 / rc-lookahead=40 / lookahead-slices=0 / scenecut=40 / no-hist-scenecut / radl=0 / no-splice / no-intra-refresh / ctu=32 / min-cu-size=8 / no-rect / no-amp / max-tu-size=32 / tu-inter-depth=1 / tu-intra-depth=1 / limit-tu=0 / rdoq-level=2 / dynamic-rd=0.00 / no-ssim-rd / signhide / no-tskip / nr-intra=0 / nr-inter=0 / no-constrained-intra / no-strong-intra-smoothing / max-merge=3 / limit-refs=3 / limit-modes / me=1 / subme=2 / merange=44 / temporal-mvp / no-frame-dup / no-hme / weightp / no-weightb / no-analyze-src-pics / deblock=-1:-1 / no-sao / no-sao-non-deblock / rd=4 / selective-sao=0 / no-early-skip / rskip / rskip-edge-threshold=0.050000 / no-fast-intra / no-tskip-fast / no-cu-lossless / no-b-intra / no-splitrd-skip / rdpenalty=0 / psy-rd=2.00 / psy-rdoq=1.00 / no-rd-refine / no-lossless / cbqpoffs=-2 / crqpoffs=-2 / rc=crf / crf=22.0 / qcomp=0.70 / qpstep=4 / stats-write=0 / stats-read=0 / vbv-maxrate=30001 / vbv-bufsize=15000 / vbv-init=0.9 / min-vbv-fullness=50.0 / max-vbv-fullness=80.0 / crf-max=0.0 / crf-min=0.0 / ipratio=1.40 / pbratio=1.30 / aq-mode=2 / aq-strength=0.90 / no-cutree / zone-count=0 / no-strict-cbr / qg-size=32 / no-rc-grain / qpmax=69 / qpmin=0 / no-const-vbv / sar=1 / overscan=0 / videoformat=5 / range=0 / colorprim=1 / transfer=1 / colormatrix=1 / chromaloc=1 / chromaloc-top=2 / chromaloc-bottom=2 / display-window=0 / cll=0,0 / min-luma=0 / max-luma=1023 / log2-max-poc-lsb=8 / vui-timing-info / vui-hrd-info / slices=1 / no-opt-qp-pps / no-opt-ref-list-length-pps / no-multi-pass-opt-rps / scenecut-bias=0.05 / no-opt-cu-delta-qp / no-aq-motion / no-hdr10 / no-hdr10-opt / no-dhdr10-opt / no-idr-recovery-sei / analysis-reuse-level=0 / analysis-save-reuse-level=0 / analysis-load-reuse-level=0 / scale-factor=0 / refine-intra=0 / refine-inter=0 / refine-mv=1 / refine-ctu-distortion=0 / no-limit-sao / ctu-info=0 / no-lowpass-dct / refine-analysis-type=0 / copy-pic=1 / max-ausize-factor=1.0 / no-dynamic-refine / no-single-sei / no-hevc-aq / no-svt / no-field / qp-adaptation-range=1.00 / scenecut-aware-qp=0conformance-window-offsets / right=0 / bottom=0 / decoder-max-rate=0 / no-vbv-live-multi-pass / no-mcstf / no-sbrc
Language                                 : English
Default                                  : No
Forced                                   : No
Color range                              : Limited
Color primaries                          : BT.709
Transfer characteristics                 : BT.709
Matrix coefficients                      : BT.709
Original source medium                   : Blu-ray
Audio #1
ID                                       : 2
ID in the original source medium         : 4352 (0x1100)
Format                                   : DTS XLL
Format/Info                              : Digital Theater Systems
Commercial name                          : DTS-HD Master Audio
Codec ID                                 : A_DTS
Duration                                 : 1 h 30 min
Bit rate mode                            : Variable
Bit rate                                 : 3 433 kb/s
Channel(s)                               : 6 channels
Channel layout                           : C L R Ls Rs LFE
Sampling rate                            : 48.0 kHz
Frame rate                               : 93.750 FPS (512 SPF)
Bit depth                                : 24 bits
Compression mode                         : Lossless
Stream size                              : 2.17 GiB (11%)
Title                                    : 环绕声 5.1
Language                                 : English
Default                                  : Yes
Forced                                   : No
Original source medium                   : Blu-ray
Audio #2
ID                                       : 3
ID in the original source medium         : 4352 (0x1100)
Format                                   : DTS
Format/Info                              : Digital Theater Systems
Codec ID                                 : A_DTS
Duration                                 : 1 h 30 min
Bit rate mode                            : Constant
Bit rate                                 : 1 509 kb/s
Channel(s)                               : 6 channels
Channel layout                           : C L R Ls Rs LFE
Sampling rate                            : 48.0 kHz
Frame rate                               : 93.750 FPS (512 SPF)
Bit depth                                : 24 bits
Compression mode                         : Lossy
Stream size                              : 975 MiB (5%)
Title                                    : 环绕声 5.1
Language                                 : English
Default                                  : No
Forced                                   : No
Original source medium                   : Blu-ray
Audio #3
ID                                       : 4
ID in the original source medium         : 4353 (0x1101)
Format                                   : DTS XLL
Format/Info                              : Digital Theater Systems
Commercial name                          : DTS-HD Master Audio
Codec ID                                 : A_DTS
Duration                                 : 1 h 30 min
Bit rate mode                            : Variable
Bit rate                                 : 2 013 kb/s
Channel(s)                               : 2 channels
Channel layout                           : L R
Sampling rate                            : 48.0 kHz
Frame rate                               : 93.750 FPS (512 SPF)
Bit depth                                : 24 bits
Compression mode                         : Lossless
Stream size                              : 1.27 GiB (7%)
Title                                    : 立体声
Language                                 : English
Default                                  : No
Forced                                   : No
Original source medium                   : Blu-ray
Audio #4
ID                                       : 5
ID in the original source medium         : 4353 (0x1101)
Format                                   : DTS
Format/Info                              : Digital Theater Systems
Codec ID                                 : A_DTS
Duration                                 : 1 h 30 min
Bit rate mode                            : Constant
Bit rate                                 : 1 509 kb/s
Channel(s)                               : 2 channels
Channel layout                           : L R
Sampling rate                            : 48.0 kHz
Frame rate                               : 93.750 FPS (512 SPF)
Bit depth                                : 24 bits
Compression mode                         : Lossy
Stream size                              : 975 MiB (5%)
Title                                    : 立体声
Language                                 : English
Default                                  : No
Forced                                   : No
Original source medium                   : Blu-ray
Text #1
ID                                       : 6
ID in the original source medium         : 4608 (0x1200)
Format                                   : PGS
Muxing mode                              : zlib
Codec ID                                 : S_HDMV/PGS
Codec ID/Info                            : Picture based subtitle format used on BDs/HD-DVDs
Duration                                 : 1 h 29 min
Bit rate                                 : 22.9 kb/s
Frame rate                               : 0.535 FPS
Count of elements                        : 2886
Stream size                              : 14.7 MiB (0%)
Language                                 : English
Default                                  : No
Forced                                   : No
Original source medium                   : Blu-ray
Text #2
ID                                       : 7
ID in the original source medium         : 4609 (0x1201)
Format                                   : PGS
Muxing mode                              : zlib
Codec ID                                 : S_HDMV/PGS
Codec ID/Info                            : Picture based subtitle format used on BDs/HD-DVDs
Duration                                 : 1 h 25 min
Bit rate                                 : 18.3 kb/s
Frame rate                               : 0.359 FPS
Count of elements                        : 1840
Stream size                              : 11.2 MiB (0%)
Language                                 : French
Default                                  : No
Forced                                   : No
Original source medium                   : Blu-ray
Text #3
ID                                       : 8
ID in the original source medium         : 4610 (0x1202)
Format                                   : PGS
Muxing mode                              : zlib
Codec ID                                 : S_HDMV/PGS
Codec ID/Info                            : Picture based subtitle format used on BDs/HD-DVDs
Duration                                 : 1 h 25 min
Bit rate                                 : 17.6 kb/s
Frame rate                               : 0.345 FPS
Count of elements                        : 1764
Stream size                              : 10.7 MiB (0%)
Language                                 : Spanish
Default                                  : No
Forced                                   : No
Original source medium                   : Blu-ray
Text #4
ID                                       : 9
ID in the original source medium         : 4611 (0x1203)
Format                                   : PGS
Muxing mode                              : zlib
Codec ID                                 : S_HDMV/PGS
Codec ID/Info                            : Picture based subtitle format used on BDs/HD-DVDs
Duration                                 : 1 h 23 min
Bit rate                                 : 24.9 kb/s
Frame rate                               : 0.345 FPS
Count of elements                        : 1733
Stream size                              : 14.9 MiB (0%)
Language                                 : Chinese
Default                                  : No
Forced                                   : No
Original source medium                   : Blu-ray
Text #5
ID                                       : 10
ID in the original source medium         : 4612 (0x1204)
Format                                   : PGS
Muxing mode                              : zlib
Codec ID                                 : S_HDMV/PGS
Codec ID/Info                            : Picture based subtitle format used on BDs/HD-DVDs
Duration                                 : 1 h 23 min
Bit rate                                 : 25.8 kb/s
Frame rate                               : 0.345 FPS
Count of elements                        : 1733
Stream size                              : 15.5 MiB (0%)
Language                                 : Chinese
Default                                  : No
Forced                                   : No
Original source medium                   : Blu-ray
Menu
00:00:00.000                             : en:Chapter 01
00:13:21.383                             : en:Chapter 02
00:23:35.747                             : en:Chapter 03
00:38:41.819                             : en:Chapter 04
00:51:16.114                             : en:Chapter 05
01:00:38.843                             : en:Chapter 06
01:17:16.882                             : en:Chapter 07
01:25:04.265                             : en:Chapter 08
01:30:17.036                             : en:Chapter 09
部分资源为软字幕,移动端推荐播放器:MxPlayer,nPlayer,infuse ,其他播放器请自行尝试。
部分资源为软字幕,电脑端推荐播放器:PotPlayer,完美解码,KMPLAYER,其他播放器请自行尝试。






~~~~~~~~~~~~~~~~~~~~~~~~~~~~~~~~~~~~~~~~~
[2023][欧美][动作][WEB-4K]同情恶魔[中文字幕].Sympathy.for.the.Devil.2023.2160p.UHD.BluRay.x265.10bit.DTS.HD.MA5.1-

【文件列表】:


Sympathy.for.the.Devil.2023.2160p.UHD.BluRay.x265.10bit.DTS.HD.MA5.1-NukeHD.



【下载地址列表】:


游客
文件下载链接就在这里,在您回复评论成功后才能显示。
请勿回复无意义的灌水内容。


下拉页面到最底部回复或者【点击此处快捷回复】,回复后返回此处即可查看下载链接。
如您没注册本站会员,可以点击注册本站,注册后即可回复下载。



软字幕无法在截图上展现,HDR版本/杜比视界版本截图会出现颜色异常,请使用支持的设备播放!






[img][/img]






[img][/img]

(HDR版本/杜比视界版本,截图会出现颜色异常,请使用支持的设备播放)

小贴士:【影视自媒体解说文案请移步:夏至文案解说网 www.xiazhi.vip

上一篇:[2023][其它][剧情][BD-1080P]果尔达[简繁英字幕].Golda.2023.1080p.BluRay.x265.10bit.DTS- 5.68GB
下一篇:[2023][韩国][动作][BD-1080P]犯罪都市3[简繁字幕].The.Roundup.No.Way.Out.2023.1080p.BluRay.x264.DTS- 10.54GB
回复

使用道具 举报

您需要登录后才可以回帖 登录 | 立即注册

本版积分规则

Archiver|手机版|小众纪录片影视聚合

GMT+8, 2024-7-22 07:18 , Processed in 0.081694 second(s), 12 queries , Gzip On, Redis On.

Powered by 小众纪录片影视聚合 @2010-2023

Copyright © 2010-2024, https://www.xzjlp.com/.


免责说明:本站所有内容链接、图文介绍等均来自于互联网网友分享,本站仅支持web页面展示和文字介绍,绝不提供在线观看和存储服务,也不参与录制、上传、压片。若本站收录内容无意侵犯贵司版权,请发邮件到【a885185#163.com】联系本站,我们将在第一时间删除侵权内容。谢谢!

快速回复 返回顶部 返回列表