小众纪录片影视聚合

 找回密码
 立即注册
查看: 6|回复: 0

[蓝光电影] [2023][韩国][动作][BD-1080P]犯罪都市3[简繁字幕].The.Roundup.No.Way.Out.2023.1080p.BluRay.x264.DTS- 10.54GB

[复制链接]

116万

主题

116万

帖子

116万

积分

超级版主

Rank: 8Rank: 8

积分
1167997
发表于 2024-7-9 21:10:32 | 显示全部楼层 |阅读模式


[2023][韩国][动作][BD-1080P]犯罪都市3[简繁字幕].The.Roundup.No.Way.Out.2023.1080p.BluRay.x264.DTS- 10.54GB

完整标题:犯罪都市3[简繁字幕].The.Roundup.No.Way.Out.2023.1080p.BluRay.x264.DTS-CTRLHD 10.54GB
◎标  题 犯罪都市3
◎译  名 犯罪都市3:无归之路 / 犯罪都市:铁拳扫毒(港) / The Roundup: No Way Out
◎片  名 범죄도시3
◎年  代 2023
◎产  地 韩国
◎类  别 动作 / 犯罪
◎语  言 韩语 / 日语 / 汉语普通话
◎上映日期 2023-05-31(韩国)
◎IMDb评分 6.6/10 (3809人评价)
◎IMDb链接 https://www.imdb.com/title/tt21364552/
◎豆瓣评分 6.5/10 (40114人评价)
◎豆瓣链接 https://movie.douban.com/subject/35807273/
◎片  长 105分钟
◎导  演 李相龙 Lee Sang-yong
◎编  剧 车宇振 Woo-Jin Cha
       金珉成 Kim Min-sung
       李相龙 Lee Sang-yong
◎演  员 马东锡 Ma Dong-seok
       李浚赫 Jun-hyuk Lee
       青木崇高 Munetaka Aoki
       李凡秀 Beom-su Lee
       金敏载 Kim Min-jae
       李至勋 Ji-hoon Lee
       金到建 Kim Do Geon
       高圭弼 Ko Kyu-pil
       全锡浩 Suk-Ho Jun
       安世镐 Se-ho Ahn
       韩圭源 Kyu-won Han
       崔东久 Choi Dong-goo
       李世镐 Se-ho Lee
       刚润 Kang Yun
       李泰圭 Lee Tae-gyoo
       崔光济 Gwang-je Choi
       裴卢丽 Noo-Ri Bae
       高健汉 Gun-han Ko
       柳圣贤 Ryoo Seong-hyeon
       柳仁赫 Yoo In-hyeok
       国村隼 Jun Kunimura
       朴智焕 Park Ji-hwan
       游艺林 Yeon Ye Rim
       申现勇 Hyeon-yong Shin
◎简  介
    无可替代的怪物刑警马锡道华丽回归!                                    在越南一举缉拿逃犯后,过了7年,马锡道(马东锡 饰)晋升至首尔广域搜查队,组建新的警察队伍调查一起离奇谋杀案,以期尽快抓捕到罪犯。案件调查中,马锡道发现隐匿于案件之下的新型毒品犯罪,遂决定扩大调查范围。而毒品案件幕后主使者朱成哲(李浚赫 饰)肆无忌惮地扩张这一系列的非法交易。同时专营药品流通的日本组织头目Ricky(青木崇高 饰)也来到韩国,卷入交易案件中,使犯罪规模日渐扩大。为将犯罪分子缉捕归案,马锡道将携队友展开一场惊心动魄的打击犯罪行动。
点击图片可查看大图
软字幕无法在截图上展现,HDR版本/杜比视界版本截图会出现颜色异常,请使用支持的设备播放!
##### MediaInfo ######
General
Unique ID                                : 219269949591148999271916288048834728522 (0xA4F5DB2EC17E211FDDD80E040FF6D24A)
Complete name                            : The.Roundup.No.Way.Out.2023.1080p.BluRay.x264.DTS-CTRLHD.mkv
Duration                                 : 1 h 45 min
Overall bit rate                         : 14.3 Mb/s
Video
ID                                       : 1
Format                                   : AVC
Format/Info                              : Advanced Video Codec
Format profile                           : [email protected]
Format settings                          : CABAC / 5 Ref Frames
Format settings, CABAC                   : Yes
Format settings, Reference frames        : 5 frames
Codec ID                                 : V_MPEG4/ISO/AVC
Duration                                 : 1 h 45 min
Bit rate                                 : 12.8 Mb/s
Width                                    : 1 920 pixels
Height                                   : 800 pixels
Display aspect ratio                     : 2.40:1
Frame rate mode                          : Constant
Frame rate                               : 23.976 (24000/1001) FPS
Color space                              : YUV
Chroma subsampling                       : 4:2:0
Bit depth                                : 8 bits
Scan type                                : Progressive
Bits/(Pixel*Frame)                       : 0.348
Stream size                              : 9.41 GiB (89%)
Writing library                          : x264 core 157 r2969 d4099dd
Encoding settings                        : cabac=1 / ref=5 / deblock=1:-3:-3 / analyse=0x3:0x113 / me=umh / subme=11 / psy=1 / psy_rd=1.00:0.00 / mixed_ref=1 / me_range=64 / chroma_me=1 / trellis=2 / 8x8dct=1 / cqm=0 / deadzone=21,11 / fast_pskip=1 / chroma_qp_offset=-4 / threads=25 / lookahead_threads=4 / sliced_threads=0 / nr=0 / decimate=0 / interlaced=0 / bluray_compat=0 / constrained_intra=0 / bframes=8 / b_pyramid=2 / b_adapt=2 / b_bias=0 / direct=3 / weightb=1 / open_gop=0 / weightp=2 / keyint=250 / keyint_min=23 / scenecut=40 / intra_refresh=0 / rc=2pass / mbtree=0 / bitrate=12800 / ratetol=1.0 / qcomp=0.60 / qpmin=0 / qpmax=69 / qpstep=4 / cplxblur=20.0 / qblur=0.5 / ip_ratio=1.40 / pb_ratio=1.30 / aq=1:0.80
Language                                 : English
Default                                  : Yes
Forced                                   : No
Audio
ID                                       : 2
Format                                   : DTS
Format/Info                              : Digital Theater Systems
Codec ID                                 : A_DTS
Duration                                 : 1 h 45 min
Bit rate mode                            : Constant
Bit rate                                 : 1 509 kb/s
Channel(s)                               : 6 channels
Channel layout                           : C L R Ls Rs LFE
Sampling rate                            : 48.0 kHz
Frame rate                               : 93.750 FPS (512 SPF)
Bit depth                                : 24 bits
Compression mode                         : Lossy
Stream size                              : 1.11 GiB (11%)
Title                                    : 韩语
Language                                 : Korean
Default                                  : Yes
Forced                                   : No
Text #1
ID                                       : 3
Format                                   : PGS
Muxing mode                              : zlib
Codec ID                                 : S_HDMV/PGS
Codec ID/Info                            : Picture based subtitle format used on BDs/HD-DVDs
Duration                                 : 1 h 38 min
Bit rate                                 : 26.3 kb/s
Frame rate                               : 0.558 FPS
Count of elements                        : 3313
Stream size                              : 18.6 MiB (0%)
Title                                    : 简中
Language                                 : Chinese
Default                                  : Yes
Forced                                   : No
Text #2
ID                                       : 4
Format                                   : PGS
Muxing mode                              : zlib
Codec ID                                 : S_HDMV/PGS
Codec ID/Info                            : Picture based subtitle format used on BDs/HD-DVDs
Duration                                 : 1 h 38 min
Bit rate                                 : 27.8 kb/s
Frame rate                               : 0.558 FPS
Count of elements                        : 3313
Stream size                              : 19.7 MiB (0%)
Title                                    : 繁中
Language                                 : Chinese
Default                                  : No
Forced                                   : No
部分资源为软字幕,移动端推荐播放器:MxPlayer,nPlayer,infuse ,其他播放器请自行尝试。
部分资源为软字幕,电脑端推荐播放器:PotPlayer,完美解码,KMPLAYER,其他播放器请自行尝试。






~~~~~~~~~~~~~~~~~~~~~~~~~~~~~~~~~~~~~~~~~
[2023][韩国][动作][BD-1080P]犯罪都市3[简繁字幕].The.Roundup.No.Way.Out.2023.1080p.BluRay.x264.DTS- 10.54GB

【文件列表】:


The.Roundup.No.Way.Out.2023.1080p.BluRay.x264.DTS-CTRLHD.



【下载地址列表】:


游客
文件下载链接就在这里,在您回复评论成功后才能显示。
请勿回复无意义的灌水内容。


下拉页面到最底部回复或者【点击此处快捷回复】,回复后返回此处即可查看下载链接。
如您没注册本站会员,可以点击注册本站,注册后即可回复下载。



软字幕无法在截图上展现,HDR版本/杜比视界版本截图会出现颜色异常,请使用支持的设备播放!






[img][/img]






[img][/img]

(HDR版本/杜比视界版本,截图会出现颜色异常,请使用支持的设备播放)

小贴士:【影视自媒体解说文案请移步:夏至文案解说网 www.xiazhi.vip

上一篇:[2023][欧美][动作][WEB-4K]同情恶魔[中文字幕].Sympathy.for.the.Devil.2023.2160p.UHD.BluRay.x265.10bit.DTS.HD.MA5.1-
下一篇:[2023][韩国][动作][BD-1080P]犯罪都市3[简繁字幕].The.Roundup.No.Way.Out.2023.1080p.BluRay.x265.10bit.DTS- 6.58G
回复

使用道具 举报

您需要登录后才可以回帖 登录 | 立即注册

本版积分规则

Archiver|手机版|小众纪录片影视聚合

GMT+8, 2024-7-25 02:05 , Processed in 0.069979 second(s), 12 queries , Gzip On, Redis On.

Powered by 小众纪录片影视聚合 @2010-2023

Copyright © 2010-2024, https://www.xzjlp.com/.


免责说明:本站所有内容链接、图文介绍等均来自于互联网网友分享,本站仅支持web页面展示和文字介绍,绝不提供在线观看和存储服务,也不参与录制、上传、压片。若本站收录内容无意侵犯贵司版权,请发邮件到【a885185#163.com】联系本站,我们将在第一时间删除侵权内容。谢谢!

快速回复 返回顶部 返回列表