小众纪录片影视聚合

 找回密码
 立即注册
查看: 2|回复: 0

[蓝光电影] [2023][大陆][剧情][WEB-4K]坚如磐石[IMAX满屏版][国语音轨/中英双语字幕].Under.the.Light.2023.IMAX.2160p.WEB-DL.H265.HDR.DTS-G

[复制链接]

112万

主题

112万

帖子

112万

积分

超级版主

Rank: 8Rank: 8

积分
1128817
发表于 7 天前 | 显示全部楼层 |阅读模式


[2023][大陆][剧情][WEB-4K]坚如磐石[IMAX满屏版][国语音轨/中英双语字幕].Under.the.Light.2023.IMAX.2160p.WEB-DL.H265.HDR.DTS-G

完整标题:坚如磐石[IMAX满屏版][国语音轨/中英双语字幕].Under.the.Light.2023.IMAX.2160p.WEB-DL.H265.HDR.DTS-GPTHD 6.10GB
◎标  题 坚如磐石
◎译  名 黑洞 / Under the Light
◎年  代 2023
◎产  地 中国大陆
◎类  别 剧情 / 动作 / 犯罪
◎语  言 汉语普通话
◎上映日期 2023-09-28(中国大陆)
◎IMDb评分 6.2/10 (323人评价)
◎IMDb链接 https://www.imdb.com/title/tt11448070/
◎豆瓣评分 6.3/10 (230176人评价)
◎豆瓣链接 https://movie.douban.com/subject/33447633/
◎片  长 127分钟
◎导  演 张艺谋 Yimou Zhang
◎编  剧 陈宇 Yu Chen
◎演  员 雷佳音 Jiayin Lei
       张国立 Guoli Zhang
       于和伟 Hewei Yu
       周冬雨 Dongyu Zhou
       孙艺洲 Yizhou Sun
       李乃文 Naiwen Li
       许亚军 Yajun Xu
       田雨 Yu Tian
       何政军 Zhengjun He
       徐子力 Zili Xu
       林博洋 Boyang Lin
       陈童 Tong Chen
       陈道明 Daoming Chen
       陈冲 Joan Chen
       王迅 Xun Wang
       赵亮 Liang Zhao
       焦刚 Gang Jiao
       楚布花羯 ChoBu HuaJe
◎简  介
    金江市副市长郑刚(张国立 饰)之子苏见明(雷佳音 饰)不顾父亲的劝阻,应邀赴约首富黎志田(于和伟 饰)的“鸿门宴”,不料却被迫观看了一出“人手下火锅”的猖狂戏码。旧案翻起,风雨欲来,各方蛰伏势力蠢蠢欲动,筹谋与算计、审视与怀疑,光怪陆离之中,人性欲望翻腾,谁将撕去最后的面具?
点击图片可查看大图
软字幕无法在截图上展现,HDR版本/杜比视界版本截图会出现颜色异常,请使用支持的设备播放!
##### MediaInfo ######
General
Unique ID                                : 301340388252774430631967377640649872092 (0xE2B40C374EC92373F97E608E68D352DC)
Complete name                            : 坚如磐石.Under.the.Light.2023.IMAX.2160p.WEB-DL.H265.HDR.DTS-GPTHD.mkv
Duration                                 : 2 h 7 min
Overall bit rate                         : 6 836 kb/s
Video
ID                                       : 1
Format                                   : HEVC
Format/Info                              : High Efficiency Video Coding
Format profile                           : Main 10@L5@Main
HDR format                               : SMPTE ST 2086, HDR10 compatible
Codec ID                                 : V_MPEGH/ISO/HEVC
Duration                                 : 2 h 7 min
Bit rate                                 : 4 401 kb/s
Width                                    : 3 840 pixels
Height                                   : 2 160 pixels
Display aspect ratio                     : 16:9
Frame rate mode                          : Constant
Frame rate                               : 24.000 FPS
Color space                              : YUV
Chroma subsampling                       : 4:2:0
Bit depth                                : 10 bits
Bits/(Pixel*Frame)                       : 0.022
Stream size                              : 3.93 GiB (64%)
Default                                  : Yes
Forced                                   : No
Color range                              : Limited
Color primaries                          : BT.2020
Transfer characteristics                 : PQ
Matrix coefficients                      : BT.2020 non-constant
Mastering display color primaries        : Display P3
Mastering display luminance              : min: 0.0050 cd/m2, max: 4000 cd/m2
Maximum Content Light Level              : 996 cd/m2
Maximum Frame-Average Light Level        : 170 cd/m2
Audio #1
ID                                       : 2
Format                                   : DTS
Format/Info                              : Digital Theater Systems
Codec ID                                 : A_DTS
Duration                                 : 2 h 7 min
Bit rate mode                            : Constant
Bit rate                                 : 768 kb/s
Channel(s)                               : 6 channels
Channel layout                           : C L R Ls Rs LFE
Sampling rate                            : 48.0 kHz
Frame rate                               : 93.750 FPS (512 SPF)
Bit depth                                : 16 bits
Compression mode                         : Lossy
Stream size                              : 702 MiB (11%)
Title                                    : 国语DTS5.1
Language                                 : Chinese
Default                                  : Yes
Forced                                   : No
Audio #2
ID                                       : 3
Format                                   : E-AC-3 JOC
Format/Info                              : Enhanced AC-3 with Joint Object Coding
Commercial name                          : Dolby Digital Plus with Dolby Atmos
Codec ID                                 : A_EAC3
Duration                                 : 2 h 7 min
Bit rate mode                            : Constant
Bit rate                                 : 448 kb/s
Channel(s)                               : 6 channels
Channel layout                           : L R C LFE Ls Rs
Sampling rate                            : 48.0 kHz
Frame rate                               : 31.250 FPS (1536 SPF)
Compression mode                         : Lossy
Stream size                              : 702 MiB (11%)
Title                                    : 国语全景声
Language                                 : Chinese
Service kind                             : Complete Main
Default                                  : Yes
Forced                                   : No
Complexity index                         : 16
Number of dynamic objects                : 15
Bed channel count                        : 1 channel
Bed channel configuration                : LFE
Audio #3
ID                                       : 4
Format                                   : E-AC-3
Format/Info                              : Enhanced AC-3
Commercial name                          : Dolby Digital Plus
Codec ID                                 : A_EAC3
Duration                                 : 2 h 7 min
Bit rate mode                            : Constant
Bit rate                                 : 384 kb/s
Channel(s)                               : 6 channels
Channel layout                           : L R C LFE Ls Rs
Sampling rate                            : 48.0 kHz
Frame rate                               : 31.250 FPS (1536 SPF)
Compression mode                         : Lossy
Stream size                              : 351 MiB (6%)
Title                                    : 国语DDP5.1
Language                                 : Chinese
Service kind                             : Complete Main
Default                                  : Yes
Forced                                   : No
Audio #4
ID                                       : 5
Format                                   : E-AC-3
Format/Info                              : Enhanced AC-3
Commercial name                          : Dolby Digital Plus
Codec ID                                 : A_EAC3
Duration                                 : 2 h 7 min
Bit rate mode                            : Constant
Bit rate                                 : 256 kb/s
Channel(s)                               : 2 channels
Channel layout                           : L R
Sampling rate                            : 48.0 kHz
Frame rate                               : 31.250 FPS (1536 SPF)
Compression mode                         : Lossy
Stream size                              : 234 MiB (4%)
Title                                    : 国语DDP2.0
Language                                 : Chinese
Service kind                             : Complete Main
Default                                  : Yes
Forced                                   : No
Audio #5
ID                                       : 6
Format                                   : AAC LC
Format/Info                              : Advanced Audio Codec Low Complexity
Codec ID                                 : A_AAC-2
Duration                                 : 2 h 7 min
Bit rate                                 : 256 kb/s
Channel(s)                               : 2 channels
Channel layout                           : L R
Sampling rate                            : 44.1 kHz
Frame rate                               : 43.066 FPS (1024 SPF)
Compression mode                         : Lossy
Stream size                              : 234 MiB (4%)
Title                                    : 国语AAC2.0
Language                                 : Chinese
Default                                  : Yes
Forced                                   : No
Text
ID                                       : 7
Format                                   : UTF-8
Codec ID                                 : S_TEXT/UTF8
Codec ID/Info                            : UTF-8 Plain Text
Duration                                 : 2 h 3 min
Bit rate                                 : 88 b/s
Frame rate                               : 0.254 FPS
Count of elements                        : 1877
Stream size                              : 80.2 KiB (0%)
Title                                    : 中英双语
Language                                 : Chinese
Default                                  : Yes
Forced                                   : No
部分资源为软字幕,移动端推荐播放器:MxPlayer,nPlayer,infuse ,其他播放器请自行尝试。
部分资源为软字幕,电脑端推荐播放器:PotPlayer,完美解码,KMPLAYER,其他播放器请自行尝试。






~~~~~~~~~~~~~~~~~~~~~~~~~~~~~~~~~~~~~~~~~
[2023][大陆][剧情][WEB-4K]坚如磐石[IMAX满屏版][国语音轨/中英双语字幕].Under.the.Light.2023.IMAX.2160p.WEB-DL.H265.HDR.DTS-G

【文件列表】:


Under.the.Light.2023.IMAX.2160p.WEB-DL.H265.HDR.DTS-GPTHD.



【下载地址列表】:


游客
文件下载链接就在这里,在您回复评论成功后才能显示。
请勿回复无意义的灌水内容。


下拉页面到最底部回复或者【点击此处快捷回复】,回复后返回此处即可查看下载链接。
如您没注册本站会员,可以点击注册本站,注册后即可回复下载。



软字幕无法在截图上展现,HDR版本/杜比视界版本截图会出现颜色异常,请使用支持的设备播放!






[img][/img]






[img][/img]

(HDR版本/杜比视界版本,截图会出现颜色异常,请使用支持的设备播放)

小贴士:【影视自媒体解说文案请移步:夏至文案解说网 www.xiazhi.vip

上一篇:[2023][韩国][动作][BD-1080P]犯罪都市3[简繁字幕].The.Roundup.No.Way.Out.2023.1080p.BluRay.x265.10bit.DTS- 6.58G
下一篇:[2023][大陆][剧情][WEB-1080P]望道[国语配音/中文字幕].Manifesto.2023.1080p.WEB-DL.H265.DDP5.1- 2.05GB
回复

使用道具 举报

您需要登录后才可以回帖 登录 | 立即注册

本版积分规则

Archiver|手机版|小众纪录片影视聚合

GMT+8, 2024-7-16 22:55 , Processed in 0.280832 second(s), 12 queries , Gzip On, Redis On.

Powered by 小众纪录片影视聚合 @2010-2023

Copyright © 2010-2024, https://www.xzjlp.com/.


免责说明:本站所有内容链接、图文介绍等均来自于互联网网友分享,本站仅支持web页面展示和文字介绍,绝不提供在线观看和存储服务,也不参与录制、上传、压片。若本站收录内容无意侵犯贵司版权,请发邮件到【a885185#163.com】联系本站,我们将在第一时间删除侵权内容。谢谢!

快速回复 返回顶部 返回列表