小众纪录片影视聚合

 找回密码
 立即注册
查看: 4|回复: 0

[蓝光电影] [2023][大陆][剧情][WEB-1080P]望道[国语配音/中文字幕].Manifesto.2023.1080p.WEB-DL.H265.DDP5.1- 2.05GB

[复制链接]

113万

主题

113万

帖子

113万

积分

超级版主

Rank: 8Rank: 8

积分
1134709
发表于 2024-7-9 21:10:42 | 显示全部楼层 |阅读模式


[2023][大陆][剧情][WEB-1080P]望道[国语配音/中文字幕].Manifesto.2023.1080p.WEB-DL.H265.DDP5.1- 2.05GB

完整标题:望道[国语配音/中文字幕].Manifesto.2023.1080p.WEB-DL.H265.DDP5.1-DreamHD 2.05GB
◎标  题 望道
◎译  名 宣言 / Manifesto
◎年  代 2023
◎产  地 中国大陆
◎类  别 剧情 / 历史
◎语  言 汉语普通话
◎上映日期 2023-03-24(中国大陆)
◎IMDb评分 4.5/10 (15人评价)
◎IMDb链接 https://www.imdb.com/title/tt24853062/
◎豆瓣评分 5.8/10 (7157人评价)
◎豆瓣链接 https://movie.douban.com/subject/35275659/
◎片  长 112分钟
◎导  演 侯咏 Yong Hou
◎编  剧 贺子壮 Zizhuang He
       宋晋川 Jinchuan Song
       侯咏 Yong Hou
◎演  员 刘烨 Ye Liu
       胡军 Jun Hu
       文咏珊 Janice Man
       王锵 Qiang Wang
       吴晓亮 Xiaoliang Wu
       奚美娟 Meijuan Xi
       吕星辰 Xingchen Lü
       董畅 Chan Dong
       王紫逸 Ziyi Wang
       苏豪 Hao Su
       梁霆炜 Tingwei Liang
       魏尊 Zun Wei
       曹可凡 Kefan Cao
       蒋昌建 Changjian Jiang
       朱丽群 Liqun Zhu
◎简  介
    从日本留学归来的陈望道接下了翻译《共产党宣言》的任务,从此改变了人生轨迹;陈独秀、俞秀松、施存统、经亨颐、戴季陶、蔡慕晖等历史人物一一出场。历经时代动荡变革,友朋或牺牲或离去,陈望道面临生死抉择的考验。
点击图片可查看大图
软字幕无法在截图上展现,HDR版本/杜比视界版本截图会出现颜色异常,请使用支持的设备播放!
##### MediaInfo ######
General
Unique ID                                : 260071773120943602527475042736445491020 (0xC3A80065DDAE2ACA02739C374112874C)
Complete name                            : Manifesto.2023.1080p.WEB-DL.H265.DDP5.1-DreamHD.mkv
Duration                                 : 1 h 52 min
Overall bit rate                         : 2 603 kb/s
Video
ID                                       : 1
Format                                   : HEVC
Format/Info                              : High Efficiency Video Coding
Format profile                           : Main@L4@Main
Codec ID                                 : V_MPEGH/ISO/HEVC
Duration                                 : 1 h 52 min
Bit rate                                 : 1 451 kb/s
Width                                    : 1 920 pixels
Height                                   : 856 pixels
Display aspect ratio                     : 2.25:1
Frame rate mode                          : Constant
Frame rate                               : 24.000 FPS
Color space                              : YUV
Chroma subsampling                       : 4:2:0
Bit depth                                : 8 bits
Bits/(Pixel*Frame)                       : 0.037
Stream size                              : 1.14 GiB (56%)
Default                                  : Yes
Forced                                   : No
Audio #1
ID                                       : 2
Format                                   : E-AC-3
Format/Info                              : Enhanced AC-3
Commercial name                          : Dolby Digital Plus
Codec ID                                 : A_EAC3
Duration                                 : 1 h 52 min
Bit rate mode                            : Constant
Bit rate                                 : 448 kb/s
Channel(s)                               : 6 channels
Channel layout                           : L R C LFE Ls Rs
Sampling rate                            : 48.0 kHz
Frame rate                               : 31.250 FPS (1536 SPF)
Compression mode                         : Lossy
Stream size                              : 361 MiB (17%)
Title                                    : Mandarin [DDP5.1]
Language                                 : Chinese
Service kind                             : Complete Main
Default                                  : Yes
Forced                                   : No
Audio #2
ID                                       : 3
Format                                   : E-AC-3
Format/Info                              : Enhanced AC-3
Commercial name                          : Dolby Digital Plus
Codec ID                                 : A_EAC3
Duration                                 : 1 h 52 min
Bit rate mode                            : Constant
Bit rate                                 : 256 kb/s
Channel(s)                               : 6 channels
Channel layout                           : L R C LFE Ls Rs
Sampling rate                            : 48.0 kHz
Frame rate                               : 31.250 FPS (1536 SPF)
Compression mode                         : Lossy
Stream size                              : 207 MiB (10%)
Title                                    : Mandarin [DDP5.1]
Language                                 : Chinese
Service kind                             : Complete Main
Default                                  : No
Forced                                   : No
Audio #3
ID                                       : 4
Format                                   : E-AC-3
Format/Info                              : Enhanced AC-3
Commercial name                          : Dolby Digital Plus
Codec ID                                 : A_EAC3
Duration                                 : 1 h 52 min
Bit rate mode                            : Constant
Bit rate                                 : 256 kb/s
Channel(s)                               : 2 channels
Channel layout                           : L R
Sampling rate                            : 48.0 kHz
Frame rate                               : 31.250 FPS (1536 SPF)
Compression mode                         : Lossy
Stream size                              : 207 MiB (10%)
Title                                    : Mandarin [DDP2.0]
Language                                 : Chinese
Service kind                             : Complete Main
Default                                  : No
Forced                                   : No
Audio #4
ID                                       : 5
Format                                   : AAC LC
Format/Info                              : Advanced Audio Codec Low Complexity
Codec ID                                 : A_AAC-2
Duration                                 : 1 h 52 min
Bit rate                                 : 192 kb/s
Channel(s)                               : 2 channels
Channel layout                           : L R
Sampling rate                            : 44.1 kHz
Frame rate                               : 43.066 FPS (1024 SPF)
Compression mode                         : Lossy
Stream size                              : 153 MiB (7%)
Title                                    : Mandarin [AAC2.0]
Language                                 : Chinese
Default                                  : No
Forced                                   : No
部分资源为软字幕,移动端推荐播放器:MxPlayer,nPlayer,infuse ,其他播放器请自行尝试。
部分资源为软字幕,电脑端推荐播放器:PotPlayer,完美解码,KMPLAYER,其他播放器请自行尝试。






~~~~~~~~~~~~~~~~~~~~~~~~~~~~~~~~~~~~~~~~~
[2023][大陆][剧情][WEB-1080P]望道[国语配音/中文字幕].Manifesto.2023.1080p.WEB-DL.H265.DDP5.1- 2.05GB

【文件列表】:


Manifesto.2023.1080p.WEB-DL.H265.DDP5.1-DreamHD.



【下载地址列表】:


游客
文件下载链接就在这里,在您回复评论成功后才能显示。
请勿回复无意义的灌水内容。


下拉页面到最底部回复或者【点击此处快捷回复】,回复后返回此处即可查看下载链接。
如您没注册本站会员,可以点击注册本站,注册后即可回复下载。



软字幕无法在截图上展现,HDR版本/杜比视界版本截图会出现颜色异常,请使用支持的设备播放!






[img][/img]






[img][/img]

(HDR版本/杜比视界版本,截图会出现颜色异常,请使用支持的设备播放)

小贴士:【影视自媒体解说文案请移步:夏至文案解说网 www.xiazhi.vip

上一篇:[2023][大陆][剧情][WEB-4K]坚如磐石[IMAX满屏版][国语音轨/中英双语字幕].Under.the.Light.2023.IMAX.2160p.WEB-DL.H265.HDR.DTS-G
下一篇:[更 早][其它][其它][BD-1080P]雅克·德米的世界[简繁英字幕].The.World.of.Jacques.Demy.1995.CC.1080p.BluRay.x264.FLAC.1.0-SON
回复

使用道具 举报

您需要登录后才可以回帖 登录 | 立即注册

本版积分规则

Archiver|手机版|小众纪录片影视聚合

GMT+8, 2024-7-22 06:47 , Processed in 0.067079 second(s), 13 queries , Gzip On, Redis On.

Powered by 小众纪录片影视聚合 @2010-2023

Copyright © 2010-2024, https://www.xzjlp.com/.


免责说明:本站所有内容链接、图文介绍等均来自于互联网网友分享,本站仅支持web页面展示和文字介绍,绝不提供在线观看和存储服务,也不参与录制、上传、压片。若本站收录内容无意侵犯贵司版权,请发邮件到【a885185#163.com】联系本站,我们将在第一时间删除侵权内容。谢谢!

快速回复 返回顶部 返回列表