小众纪录片影视聚合

 找回密码
 立即注册
查看: 6|回复: 0

[蓝光电影] [更 早][其它][喜剧][BD-1080P]仁心与冠冕[简繁英字幕].Kind.Hearts.and.Coronets.1949.1080p.BluRay.x265.10bit.FLAC.2.0-SONY

[复制链接]

116万

主题

116万

帖子

116万

积分

超级版主

Rank: 8Rank: 8

积分
1167997
发表于 2024-7-9 21:11:04 | 显示全部楼层 |阅读模式


[更 早][其它][喜剧][BD-1080P]仁心与冠冕[简繁英字幕].Kind.Hearts.and.Coronets.1949.1080p.BluRay.x265.10bit.FLAC.2.0-SONY

完整标题:仁心与冠冕[简繁英字幕].Kind.Hearts.and.Coronets.1949.1080p.BluRay.x265.10bit.FLAC.2.0-SONYHD 4.59GB
◎标  题 仁心与冠冕
◎译  名 慈悲心肠 / 好心肠与王冠
◎片  名 Kind Hearts and Coronets
◎年  代 1949
◎产  地 英国
◎类  别 喜剧 / 犯罪
◎语  言 英语
◎上映日期 1949-06-23(英国)
◎IMDb评分 8/10 (39238人评价)
◎IMDb链接 https://www.imdb.com/title/tt0041546/
◎豆瓣评分 8.5/10 (8534人评价)
◎豆瓣链接 https://movie.douban.com/subject/1295995/
◎片  长 106 分钟
◎导  演 罗伯特·哈默 Robert Hamer
◎编  剧 约翰·戴顿 John Dighton
       罗伯特·哈默 Robert Hamer
◎演  员 亚历克·吉尼斯 Alec Guinness
       瓦莱莉娅·霍布森 Valerie Hobson
       丹尼斯·普莱斯 Dennis Price
       亚瑟·罗维 Arthur Lowe
       休·格里夫斯 Hugh Griffith
       John Penrose John Penrose
       克莱夫·莫顿 Clive Morton
       Audrey Fildes Audrey Fildes
       琼·格林伍德 Joan Greenwood
◎简  介
    路易斯(丹尼斯·普莱斯 Dennis Price 饰)的母亲出身高贵的阿斯特内家族,但因和一个意大利歌唱家私奔,至死都受到家族排斥。已经长大成人的路易斯深深牢记贵族亲戚们拒绝母亲葬在家庭墓地的嘴脸,又经历心爱的少女茜贝拉(简·格林伍德 Joan Greenwood 饰)因他贫穷拒绝他的求婚,于是着手展开他的复仇计划。他把有爵位继承权的男性亲属一个个用计谋杀掉,旨在自己可以得到公爵爵位,在杀人变得越来越得心应手后,连老弱妇孺都不肯放过,反正他总能制造各种巧合,从来没有人怀疑到他身上。但在复仇计划执行的同时,他也陷入感情困扰——嫁人后的茜贝拉和他藕断丝连,又有个家族内美丽的遗孀艾迪丝(Valerie Hobson 饰)爱上了他,愿意和他订婚,在路易斯得意洋洋继承爵位和举办婚礼之际,他的罪行似乎也要败露……##### MediaInfo ######
General
Unique ID                                : 304857808609923822858569800772483651810 (0xE5597A6DD1CA764DFC6426BBDA8998E2)
Complete name                            : Kind.Hearts.and.Coronets.1949.1080p.BluRay.x265.10bit.FLAC.2.0-SONYHD.mkv
Duration                                 : 1 h 46 min
Overall bit rate mode                    : Variable
Overall bit rate                         : 6 194 kb/s
Video
ID                                       : 1
Format                                   : HEVC
Format/Info                              : High Efficiency Video Coding
Format profile                           : Main 10@L4@Main
Codec ID                                 : V_MPEGH/ISO/HEVC
Duration                                 : 1 h 46 min
Bit rate                                 : 5 635 kb/s
Width                                    : 1 480 pixels
Height                                   : 1 080 pixels
Display aspect ratio                     : 1.370
Frame rate mode                          : Constant
Frame rate                               : 24.000 FPS
Color space                              : YUV
Chroma subsampling                       : 4:2:0
Bit depth                                : 10 bits
Bits/(Pixel*Frame)                       : 0.147
Stream size                              : 4.18 GiB (91%)
Writing library                          : x265 3.5g2b25c9ba0+45:[Windows][GCC 10.2.0][64 bit] Yuuki 10bit+8bit+12bit
Encoding settings                        : rc=crf / crf=26.0000 / qcomp=0.60 / qpstep=4 / stats-write=0 / stats-read=0 / no-lossless / no-cu-lossless / aq-mode=3 / aq-strength=0.90 / cbqpoffs=0 / crqpoffs=0 / ipratio=1.40 / pbratio=1.30 / psy-rd=2.00 / psy-rdoq=0.00 / deblock=0:0 / ref=6 / limit-refs=1 / no-limit-modes / bframes=8 / b-adapt=2 / bframe-bias=0 / b-pyramid / b-intra / weightp / weightb / min-keyint=24 / max-keyint=240 / rc-lookahead=24 / gop-lookahead=0 / scenecut=40 / hist-scenecut=0 / radl=0 / max-cu-size=64 / min-cu-size=8 / me=3 / subme=7 / merange=48 / rdoq-level=0 / rd=4 / rdpenalty=0 / dynamic-rd=0.00 / no-rd-refine / ----- / cutree / sao / no-rect / no-amp / no-open-gop / wpp / no-pmode / no-pme / no-psnr / no-ssim / nr-intra=0 / nr-inter=0 / no-constrained-intra / no-strong-intra-smoothing / max-tu-size=32 / tu-inter-depth=1 / tu-intra-depth=1 / limit-tu=0 / qg-size=32 / qpmax=69 / qpmin=0 / ----- / cpuid=1111039 / frame-threads=5 / numa-pools=+ / log-level=2 / input-csp=1 / input-res=1480x1080 / interlace=0 / level-idc=0 / high-tier=1 / uhd-bd=0 / no-allow-non-conformance / no-repeat-headers / aud / no-hrd / info / hash=0 / no-temporal-layers / lookahead-slices=0 / no-splice / no-intra-refresh / no-ssim-rd / signhide / no-tskip / max-merge=3 / temporal-mvp / no-frame-dup / no-hme / no-analyze-src-pics / no-sao-non-deblock / selective-sao=4 / early-skip / rskip / no-fast-intra / no-tskip-fast / no-splitrd-skip / zone-count=0 / no-strict-cbr / no-rc-grain / no-const-vbv / sar=0 / overscan=0 / videoformat=5 / range=0 / colorprim=2 / transfer=2 / colormatrix=2 / chromaloc=0 / display-window=0 / cll=0,0 / min-luma=0 / max-luma=1023 / log2-max-poc-lsb=8 / vui-timing-info / vui-hrd-info / slices=1 / no-opt-qp-pps / no-opt-ref-list-length-pps / no-multi-pass-opt-rps / scenecut-bias=0.05 / hist-threshold=0.03 / no-opt-cu-delta-qp / no-aq-motion / no-hdr10 / no-hdr10-opt / no-dhdr10-opt / no-idr-recovery-sei / analysis-reuse-level=0 / analysis-save-reuse-level=0 / analysis-load-reuse-level=0 / scale-factor=0 / refine-intra=0 / refine-inter=0 / refine-mv=1 / refine-ctu-distortion=0 / no-limit-sao / ctu-info=0 / no-lowpass-dct / refine-analysis-type=0 / copy-pic=1 / max-ausize-factor=1.0 / no-dynamic-refine / no-single-sei / no-hevc-aq / no-svt / no-field / qp-adaptation-range=1.00 / scenecut-aware-qp=0conformance-window-offsets / right=0 / bottom=0 / decoder-max-rate=0 / no-vbv-live-multi-pass
Default                                  : Yes
Forced                                   : No
Audio
ID                                       : 2
Format                                   : FLAC
Format/Info                              : Free Lossless Audio Codec
Codec ID                                 : A_FLAC
Duration                                 : 1 h 46 min
Bit rate mode                            : Variable
Bit rate                                 : 433 kb/s
Channel(s)                               : 2 channels
Channel layout                           : L R
Sampling rate                            : 48.0 kHz
Frame rate                               : 11.719 FPS (4096 SPF)
Bit depth                                : 16 bits
Compression mode                         : Lossless
Stream size                              : 328 MiB (7%)
Title                                    : English
Writing library                          : libFLAC 1.2.1 (UTC 2007-09-17)
Language                                 : English
Default                                  : Yes
Forced                                   : No
Text #1
ID                                       : 3
ID in the original source medium         : 4611 (0x1203)
Format                                   : PGS
Muxing mode                              : zlib
Codec ID                                 : S_HDMV/PGS
Codec ID/Info                            : Picture based subtitle format used on BDs/HD-DVDs
Duration                                 : 1 h 45 min
Bit rate                                 : 74.8 kb/s
Frame rate                               : 0.491 FPS
Count of elements                        : 3096
Stream size                              : 56.2 MiB (1%)
Title                                    : chs&eng
Language                                 : Chinese
Default                                  : Yes
Forced                                   : No
Original source medium                   : Blu-ray
Text #2
ID                                       : 4
ID in the original source medium         : 4612 (0x1204)
Format                                   : PGS
Muxing mode                              : zlib
Codec ID                                 : S_HDMV/PGS
Codec ID/Info                            : Picture based subtitle format used on BDs/HD-DVDs
Duration                                 : 1 h 45 min
Bit rate                                 : 75.6 kb/s
Frame rate                               : 0.491 FPS
Count of elements                        : 3096
Stream size                              : 56.8 MiB (1%)
Title                                    : cht&eng
Language                                 : Chinese
Default                                  : No
Forced                                   : No
Original source medium                   : Blu-ray
Text #3
ID                                       : 5
ID in the original source medium         : 4613 (0x1205)
Format                                   : PGS
Muxing mode                              : zlib
Codec ID                                 : S_HDMV/PGS
Codec ID/Info                            : Picture based subtitle format used on BDs/HD-DVDs
Duration                                 : 1 h 45 min
Bit rate                                 : 42.5 kb/s
Frame rate                               : 0.491 FPS
Count of elements                        : 3096
Stream size                              : 31.9 MiB (1%)
Title                                    : chs
Language                                 : Chinese
Default                                  : No
Forced                                   : No
Original source medium                   : Blu-ray
Text #4
ID                                       : 6
ID in the original source medium         : 4614 (0x1206)
Format                                   : PGS
Muxing mode                              : zlib
Codec ID                                 : S_HDMV/PGS
Codec ID/Info                            : Picture based subtitle format used on BDs/HD-DVDs
Duration                                 : 1 h 45 min
Bit rate                                 : 43.2 kb/s
Frame rate                               : 0.491 FPS
Count of elements                        : 3096
Stream size                              : 32.5 MiB (1%)
Title                                    : cht
Language                                 : Chinese
Default                                  : No
Forced                                   : No
Original source medium                   : Blu-ray
Text #5
ID                                       : 7
ID in the original source medium         : 4608 (0x1200)
Format                                   : PGS
Muxing mode                              : zlib
Codec ID                                 : S_HDMV/PGS
Codec ID/Info                            : Picture based subtitle format used on BDs/HD-DVDs
Duration                                 : 1 h 43 min
Bit rate                                 : 54.1 kb/s
Frame rate                               : 0.526 FPS
Count of elements                        : 3250
Stream size                              : 39.9 MiB (1%)
Title                                    : eng
Language                                 : English
Default                                  : No
Forced                                   : No
Original source medium                   : Blu-ray
Menu
00:00:00.000                             : en:Chapter 01
00:06:49.166                             : en:Chapter 02
00:10:54.125                             : en:Chapter 03
00:20:18.208                             : en:Chapter 04
00:30:54.791                             : en:Chapter 05
00:41:02.791                             : en:Chapter 06
00:49:59.416                             : en:Chapter 07
01:00:08.250                             : en:Chapter 08
01:07:59.791                             : en:Chapter 09
01:15:15.416                             : en:Chapter 10
01:29:08.750                             : en:Chapter 11
01:37:08.041                             : en:Chapter 12
部分资源为软字幕,移动端推荐播放器:MxPlayer,nPlayer,infuse ,其他播放器请自行尝试。
部分资源为软字幕,电脑端推荐播放器:PotPlayer,完美解码,KMPLAYER,其他播放器请自行尝试。






~~~~~~~~~~~~~~~~~~~~~~~~~~~~~~~~~~~~~~~~~
[更 早][其它][喜剧][BD-1080P]仁心与冠冕[简繁英字幕].Kind.Hearts.and.Coronets.1949.1080p.BluRay.x265.10bit.FLAC.2.0-SONY

【文件列表】:


Kind.Hearts.and.Coronets.1949.1080p.BluRay.x265.10bit.FLAC.2.0-SONYHD.



【下载地址列表】:


游客
文件下载链接就在这里,在您回复评论成功后才能显示。
请勿回复无意义的灌水内容。


下拉页面到最底部回复或者【点击此处快捷回复】,回复后返回此处即可查看下载链接。
如您没注册本站会员,可以点击注册本站,注册后即可回复下载。



软字幕无法在截图上展现,HDR版本/杜比视界版本截图会出现颜色异常,请使用支持的设备播放!






[img][/img]






[img][/img]

(HDR版本/杜比视界版本,截图会出现颜色异常,请使用支持的设备播放)

小贴士:【影视自媒体解说文案请移步:夏至文案解说网 www.xiazhi.vip

上一篇:[更 早][其它][喜剧][BD-1080P]仁心与冠冕[简繁英字幕].Kind.Hearts.and.Coronets.1949.1080p.BluRay.x264.FLAC.2.0- 10.
下一篇:[更 早][日本][喜剧][BD-1080P]海贼王剧场版3:珍兽岛的乔巴王国[中文字幕].2002.1080p.BluRay.x264.DTS- 4.40GB
回复

使用道具 举报

您需要登录后才可以回帖 登录 | 立即注册

本版积分规则

Archiver|手机版|小众纪录片影视聚合

GMT+8, 2024-7-25 01:58 , Processed in 0.155825 second(s), 12 queries , Gzip On, Redis On.

Powered by 小众纪录片影视聚合 @2010-2023

Copyright © 2010-2024, https://www.xzjlp.com/.


免责说明:本站所有内容链接、图文介绍等均来自于互联网网友分享,本站仅支持web页面展示和文字介绍,绝不提供在线观看和存储服务,也不参与录制、上传、压片。若本站收录内容无意侵犯贵司版权,请发邮件到【a885185#163.com】联系本站,我们将在第一时间删除侵权内容。谢谢!

快速回复 返回顶部 返回列表