小众纪录片影视聚合

 找回密码
 立即注册
查看: 8|回复: 0

[蓝光电影] [更 早][日本][喜剧][BD-1080P]海贼王剧场版3:珍兽岛的乔巴王国[中文字幕].2002.1080p.BluRay.x264.DTS- 4.40GB

[复制链接]

116万

主题

116万

帖子

116万

积分

超级版主

Rank: 8Rank: 8

积分
1167997
发表于 2024-7-9 21:11:08 | 显示全部楼层 |阅读模式


[更 早][日本][喜剧][BD-1080P]海贼王剧场版3:珍兽岛的乔巴王国[中文字幕].2002.1080p.BluRay.x264.DTS- 4.40GB

完整标题:海贼王剧场版3:珍兽岛的乔巴王国[中文字幕].2002.1080p.BluRay.x264.DTS-SONYHD 4.40GB
◎标  题 海贼王剧场版3:珍兽岛的乔巴王国
◎译  名 海贼王剧场版:珍兽岛的乔巴王国
◎片  名 ONE PIECE 珍獣島のチョッパー王国
◎年  代 2002
◎产  地 日本
◎类  别 喜剧 / 动作 / 动画 / 奇幻 / 冒险
◎语  言 意大利语 / 日语
◎上映日期 2002-03-02(日本)
◎IMDb评分 6.2/10 (2099人评价)
◎IMDb链接 https://www.imdb.com/title/tt0997084/
◎豆瓣评分 7.8/10 (11697人评价)
◎豆瓣链接 https://movie.douban.com/subject/2252594/
◎片  长 55分钟
◎编  剧 尾田荣一郎 Eiichiro Oda
◎演  员 田中真弓 Mayumi Tanaka
       冈村明美 Akemi Okamura
       中井和哉 Kazuya Nakai
       山口胜平 Kappei Yamaguchi
       平田广明 Hiroaki Hirata
       大谷育江 Ikue Ootani
       折笠爱 Ai Orikasa
       江原正士 Masashi Ebara
       关智一 Tomokazu Seki
       乡里大辅 Daisuke Gôri
       青野武 Takeshi Aono
       藤田淑子 Toshiko Fujita
◎简  介
    娜美偶然得到一张珍兽岛的地图,据说那里埋藏着无价的宝藏,草帽海贼团的诸位不顾乔巴的阻拦,决定向这座小岛挺进。正在此时,海底火山爆发,将黄金梅利号抛向空中。机缘巧合,他们竟然被抛到了珍兽岛。这个小岛由会说人话的动物统治,它们的老国王麒麟狮已经仙逝,偶然跌落于此的乔巴被众兽奉为新的国王。乔巴拗不过众兽,权且任职。正当珍兽岛为新国王的诞生欢欣鼓舞之时,贪婪邪恶的巴特拉伯爵及其爪牙登陆小岛。为了传说中的“国王宝藏”,他不惜对岛上的动物大开杀戒。他们也势必和草帽海贼团发生冲突……                                    本片根据日本漫画家尾田荣一郎的同名原著改编,是2002年上映的第三部动画剧场版。
点击图片可查看大图
软字幕无法在截图上展现,HDR版本/杜比视界版本截图会出现颜色异常,请使用支持的设备播放!
##### MediaInfo ######
General
Unique ID                                : 217105439787158487099557532087610838357 (0xA354FC9C2478394244D5D9A364F90D55)
Complete name                            : One.Piece.Choppers.Kingdom.in.the.Strange.Animal.Island.2002.1080p.BluRay.x264.DTS-SONYHD.mkv
Duration                                 : 55 min 50 s
Overall bit rate                         : 11.3 Mb/s
Video
ID                                       : 1
Format                                   : AVC
Format/Info                              : Advanced Video Codec
Format profile                           : [email protected]
Format settings                          : CABAC / 4 Ref Frames
Format settings, CABAC                   : Yes
Format settings, Reference frames        : 4 frames
Codec ID                                 : V_MPEG4/ISO/AVC
Duration                                 : 55 min 50 s
Bit rate                                 : 9 739 kb/s
Width                                    : 1 920 pixels
Height                                   : 1 076 pixels
Display aspect ratio                     : 16:9
Frame rate mode                          : Constant
Frame rate                               : 23.976 (24000/1001) FPS
Color space                              : YUV
Chroma subsampling                       : 4:2:0
Bit depth                                : 8 bits
Scan type                                : Progressive
Bits/(Pixel*Frame)                       : 0.197
Stream size                              : 3.80 GiB (86%)
Writing library                          : x264 core 164 r3085+55M 938b6d0 t_mod_New [(8 & 10)-bit@all X86_64]
Encoding settings                        : cabac=1 / ref=4 / deblock=1:-3:-3 / analyse=0x3:0x133 / me=umh / subme=11 / psy=1 / fade_compensate=0.00 / psy_rd=0.50:1.10 / mixed_ref=1 / me_range=48 / chroma_me=1 / trellis=2 / 8x8dct=1 / cqm=0 / deadzone=21,11 / fast_pskip=0 / chroma_qp_offset=-5 / threads=30 / lookahead_threads=7 / sliced_threads=0 / nr=0 / decimate=0 / interlaced=0 / bluray_compat=0 / constrained_intra=0 / fgo=0 / bframes=11 / b_pyramid=2 / b_adapt=2 / b_bias=0 / direct=3 / weightb=1 / open_gop=0 / weightp=2 / keyint=240 / keyint_min=1 / scenecut=40 / intra_refresh=0 / rc_lookahead=72 / rc=crf / mbtree=0 / crf=19.1900 / qcomp=0.60 / qpmin=0:0:0 / qpmax=69:69:69 / qpstep=4 / vbv_maxrate=62500 / vbv_bufsize=78125 / crf_max=0.0 / nal_hrd=none / filler=0 / ip_ratio=1.20 / pb_ratio=1.10 / aq=3:0.60 / aq-sensitivity=10.00 / aq-factor=1.00:1.00:1.00 / aq2=0 / aq3=0
Default                                  : Yes
Forced                                   : No
Audio
ID                                       : 2
Format                                   : DTS
Format/Info                              : Digital Theater Systems
Codec ID                                 : A_DTS
Duration                                 : 55 min 47 s
Bit rate mode                            : Constant
Bit rate                                 : 1 509 kb/s
Channel(s)                               : 6 channels
Channel layout                           : C L R Ls Rs LFE
Sampling rate                            : 48.0 kHz
Frame rate                               : 93.750 FPS (512 SPF)
Bit depth                                : 24 bits
Compression mode                         : Lossy
Stream size                              : 602 MiB (13%)
Title                                    : Japanese
Language                                 : Japanese
Default                                  : Yes
Forced                                   : No
Text #1
ID                                       : 3
Format                                   : PGS
Muxing mode                              : zlib
Codec ID                                 : S_HDMV/PGS
Codec ID/Info                            : Picture based subtitle format used on BDs/HD-DVDs
Duration                                 : 55 min 21 s
Bit rate                                 : 33.6 kb/s
Frame rate                               : 0.413 FPS
Count of elements                        : 1370
Stream size                              : 13.3 MiB (0%)
Title                                    : chs
Language                                 : Chinese
Default                                  : Yes
Forced                                   : No
Text #2
ID                                       : 4
Format                                   : PGS
Muxing mode                              : zlib
Codec ID                                 : S_HDMV/PGS
Codec ID/Info                            : Picture based subtitle format used on BDs/HD-DVDs
Duration                                 : 55 min 21 s
Bit rate                                 : 34.0 kb/s
Frame rate                               : 0.413 FPS
Count of elements                        : 1370
Stream size                              : 13.5 MiB (0%)
Title                                    : cht
Language                                 : Chinese
Default                                  : No
Forced                                   : No
Menu
00:00:00.000                             : en:Chapter 01
00:08:29.050                             : en:Chapter 02
00:18:25.104                             : en:Chapter 03
00:29:27.265                             : en:Chapter 04
00:38:17.837                             : en:Chapter 05
00:47:49.617                             : en:Chapter 06
00:53:47.850                             : en:Chapter 07
部分资源为软字幕,移动端推荐播放器:MxPlayer,nPlayer,infuse ,其他播放器请自行尝试。
部分资源为软字幕,电脑端推荐播放器:PotPlayer,完美解码,KMPLAYER,其他播放器请自行尝试。






~~~~~~~~~~~~~~~~~~~~~~~~~~~~~~~~~~~~~~~~~
[更 早][日本][喜剧][BD-1080P]海贼王剧场版3:珍兽岛的乔巴王国[中文字幕].2002.1080p.BluRay.x264.DTS- 4.40GB

【文件列表】:


2002.1080p.BluRay.x264.DTS-SONYHD.



【下载地址列表】:


游客
文件下载链接就在这里,在您回复评论成功后才能显示。
请勿回复无意义的灌水内容。


下拉页面到最底部回复或者【点击此处快捷回复】,回复后返回此处即可查看下载链接。
如您没注册本站会员,可以点击注册本站,注册后即可回复下载。



软字幕无法在截图上展现,HDR版本/杜比视界版本截图会出现颜色异常,请使用支持的设备播放!






[img][/img]






[img][/img]

(HDR版本/杜比视界版本,截图会出现颜色异常,请使用支持的设备播放)

小贴士:【影视自媒体解说文案请移步:夏至文案解说网 www.xiazhi.vip

上一篇:[更 早][其它][喜剧][BD-1080P]仁心与冠冕[简繁英字幕].Kind.Hearts.and.Coronets.1949.1080p.BluRay.x265.10bit.FLAC.2.0-SONY
下一篇:[2019][其它][惊悚][WEB-4K]鲨海逃生[中文字幕].47.Meters.Down.Uncaged.2019.2160p.JPN.UHD.BluRay.x265.10bit.HDR.DTS-H
回复

使用道具 举报

您需要登录后才可以回帖 登录 | 立即注册

本版积分规则

Archiver|手机版|小众纪录片影视聚合

GMT+8, 2024-7-25 02:54 , Processed in 0.086236 second(s), 12 queries , Gzip On, Redis On.

Powered by 小众纪录片影视聚合 @2010-2023

Copyright © 2010-2024, https://www.xzjlp.com/.


免责说明:本站所有内容链接、图文介绍等均来自于互联网网友分享,本站仅支持web页面展示和文字介绍,绝不提供在线观看和存储服务,也不参与录制、上传、压片。若本站收录内容无意侵犯贵司版权,请发邮件到【a885185#163.com】联系本站,我们将在第一时间删除侵权内容。谢谢!

快速回复 返回顶部 返回列表