小众纪录片影视聚合

 找回密码
 立即注册
查看: 5|回复: 0

[蓝光电影] [2019][其它][惊悚][WEB-4K]鲨海逃生[中文字幕].47.Meters.Down.Uncaged.2019.2160p.JPN.UHD.BluRay.x265.10bit.HDR.DTS-H

[复制链接]

116万

主题

116万

帖子

116万

积分

超级版主

Rank: 8Rank: 8

积分
1167997
发表于 2024-7-9 21:11:11 | 显示全部楼层 |阅读模式


[2019][其它][惊悚][WEB-4K]鲨海逃生[中文字幕].47.Meters.Down.Uncaged.2019.2160p.JPN.UHD.BluRay.x265.10bit.HDR.DTS-H

完整标题:鲨海逃生[中文字幕].47.Meters.Down.Uncaged.2019.2160p.JPN.UHD.BluRay.x265.10bit.HDR.DTS-HD.MA5.1-NukeHD 20.38GB
◎标  题 鲨海逃生
◎译  名 鲨海47米:狂鲨出笼(港) / 绝鲨47:猛鲨出笼(台) / 水下47米:破笼而出 / 鲨海47:猛鲨出笼 / 鲨海2 / 47 Meters Down: The Next Chapter / 48 Meters Down
◎片  名 47 Meters Down: Uncaged
◎年  代 2019
◎产  地 英国
◎类  别 惊悚 / 冒险
◎语  言 英语
◎上映日期 2020-01-10(中国大陆) / 2019-08-16(美国)
◎IMDb评分 5/10 (28072人评价)
◎IMDb链接 https://www.imdb.com/title/tt7329656/
◎豆瓣评分 5.1/10 (11847人评价)
◎豆瓣链接 https://movie.douban.com/subject/27186353/
◎片  长 89分钟
◎导  演 约翰内斯·罗伯茨 Johannes Roberts
◎编  剧 欧内斯特·里埃拉 Ernest Riera
       约翰内斯·罗伯茨 Johannes Roberts
◎演  员 尼娅·朗 Nia Long
       约翰·考伯特 John Corbett
       苏菲·奈丽丝 Sophie Nélisse
       科琳·福克斯 Corinne Foxx
       戴维·桑托斯 Davi Santos
       布芮妮·邱 Brianne Tju
       希斯蒂妮·史泰龙 Sistine Rose Stallone
       卡林·拉姆博 Khylin Rhambo
◎简  介
    《鲨海逃生》讲述了四名少女索菲·内利斯(Sophie Nélisse),科琳·福克斯(Corinne Foxx),布莱恩·朱(Brianne Tju)和西斯廷·史泰龙(Sistine Stallone)的潜水冒险,她们探索了一个被淹没的玛雅城。                                    当她们进入内部 发现下沉的废墟是致命大白鲨的猎场,心情由兴奋转为惊恐。 随着她们的供氧逐渐减少,必须在水下错综复杂且幽闭恐怖的洞穴和诡异的隧道中寻找逃离水牢的出路。
点击图片可查看大图
软字幕无法在截图上展现,HDR版本/杜比视界版本截图会出现颜色异常,请使用支持的设备播放!
##### MediaInfo ######
General
Unique ID                                : 206140692607959868916509497872135640364 (0x9B1540D5FA45A0DCEEADAB7C81C6552C)
Complete name                            : 47.Meters.Down.Uncaged.2019.2160p.JPN.UHD.BluRay.x265.10bit.HDR.DTS-HD.MA5.1-NukeHD.mkv
Duration                                 : 1 h 29 min
Overall bit rate mode                    : Variable
Overall bit rate                         : 32.5 Mb/s
Video
ID                                       : 1
ID in the original source medium         : 4113 (0x1011)
Format                                   : HEVC
Format/Info                              : High Efficiency Video Coding
Format profile                           : Main [email protected]@Main
HDR format                               : SMPTE ST 2086, HDR10 compatible
Codec ID                                 : V_MPEGH/ISO/HEVC
Duration                                 : 1 h 29 min
Bit rate                                 : 23.4 Mb/s
Width                                    : 3 840 pixels
Height                                   : 2 160 pixels
Display aspect ratio                     : 16:9
Frame rate mode                          : Constant
Frame rate                               : 23.976 (24000/1001) FPS
Color space                              : YUV
Chroma subsampling                       : 4:2:0 (Type 2)
Bit depth                                : 10 bits
Bits/(Pixel*Frame)                       : 0.118
Stream size                              : 14.7 GiB (72%)
Writing library                          : x265 3.5+100-8f18e3ad3:[Windows][GCC 5.4.0][64 bit] 10bit
Encoding settings                        : cpuid=1111039 / frame-threads=6 / numa-pools=32,32 / wpp / no-pmode / no-pme / no-psnr / no-ssim / log-level=2 / input-csp=1 / input-res=3840x2160 / interlace=0 / total-frames=0 / level-idc=51 / high-tier=1 / uhd-bd=0 / ref=4 / no-allow-non-conformance / repeat-headers / annexb / no-aud / no-eob / no-eos / no-hrd / info / hash=0 / temporal-layers=0 / no-open-gop / min-keyint=1 / keyint=240 / gop-lookahead=0 / bframes=4 / b-adapt=2 / b-pyramid / bframe-bias=0 / rc-lookahead=40 / lookahead-slices=0 / scenecut=40 / no-hist-scenecut / radl=0 / no-splice / no-intra-refresh / ctu=64 / min-cu-size=8 / no-rect / no-amp / max-tu-size=32 / tu-inter-depth=1 / tu-intra-depth=1 / limit-tu=0 / rdoq-level=2 / dynamic-rd=0.00 / no-ssim-rd / signhide / no-tskip / nr-intra=0 / nr-inter=0 / no-constrained-intra / no-strong-intra-smoothing / max-merge=3 / limit-refs=3 / limit-modes / me=2 / subme=4 / merange=57 / temporal-mvp / no-frame-dup / no-hme / weightp / no-weightb / no-analyze-src-pics / deblock=-1:-1 / no-sao / no-sao-non-deblock / rd=4 / selective-sao=0 / no-early-skip / rskip / rskip-edge-threshold=0.050000 / no-fast-intra / no-tskip-fast / no-cu-lossless / no-b-intra / no-splitrd-skip / rdpenalty=0 / psy-rd=2.00 / psy-rdoq=1.00 / no-rd-refine / no-lossless / cbqpoffs=0 / crqpoffs=0 / rc=crf / crf=22.0 / qcomp=0.70 / qpstep=4 / stats-write=0 / stats-read=0 / vbv-maxrate=30001 / vbv-bufsize=20000 / vbv-init=0.9 / min-vbv-fullness=50.0 / max-vbv-fullness=80.0 / crf-max=0.0 / crf-min=0.0 / ipratio=1.40 / pbratio=1.30 / aq-mode=2 / aq-strength=0.80 / no-cutree / zone-count=0 / no-strict-cbr / qg-size=32 / no-rc-grain / qpmax=69 / qpmin=0 / no-const-vbv / sar=1 / overscan=0 / videoformat=5 / range=0 / colorprim=9 / transfer=16 / colormatrix=9 / chromaloc=1 / chromaloc-top=2 / chromaloc-bottom=2 / display-window=0 / master-display=G(13250,34500)B(7500,3000)R(34000,16000)WP(15635,16450)L(10000000,500) / cll=600,200 / min-luma=0 / max-luma=1023 / log2-max-poc-lsb=8 / vui-timing-info / vui-hrd-info / slices=1 / no-opt-qp-pps / no-opt-ref-list-length-pps / no-multi-pass-opt-rps / scenecut-bias=0.05 / no-opt-cu-delta-qp / no-aq-motion / hdr10 / no-hdr10-opt / no-dhdr10-opt / no-idr-recovery-sei / analysis-reuse-level=0 / analysis-save-reuse-level=0 / analysis-load-reuse-level=0 / scale-factor=0 / refine-intra=0 / refine-inter=0 / refine-mv=1 / refine-ctu-distortion=0 / no-limit-sao / ctu-info=0 / no-lowpass-dct / refine-analysis-type=0 / copy-pic=1 / max-ausize-factor=1.0 / no-dynamic-refine / no-single-sei / no-hevc-aq / no-svt / no-field / qp-adaptation-range=1.00 / scenecut-aware-qp=0conformance-window-offsets / right=0 / bottom=0 / decoder-max-rate=0 / no-vbv-live-multi-pass / no-mcstf / no-sbrc
Language                                 : English
Default                                  : No
Forced                                   : No
Color range                              : Limited
Color primaries                          : BT.2020
Transfer characteristics                 : PQ
Matrix coefficients                      : BT.2020 non-constant
Mastering display color primaries        : Display P3
Mastering display luminance              : min: 0.0500 cd/m2, max: 1000 cd/m2
Maximum Content Light Level              : 600 cd/m2
Maximum Frame-Average Light Level        : 200 cd/m2
Original source medium                   : Blu-ray
Audio #1
ID                                       : 2
ID in the original source medium         : 4352 (0x1100)
Format                                   : DTS XLL
Format/Info                              : Digital Theater Systems
Commercial name                          : DTS-HD Master Audio
Codec ID                                 : A_DTS
Duration                                 : 1 h 29 min
Bit rate mode                            : Variable
Bit rate                                 : 3 894 kb/s
Channel(s)                               : 6 channels
Channel layout                           : C L R Ls Rs LFE
Sampling rate                            : 48.0 kHz
Frame rate                               : 93.750 FPS (512 SPF)
Bit depth                                : 24 bits
Compression mode                         : Lossless
Stream size                              : 2.44 GiB (12%)
Title                                    : 环绕声 5.1
Language                                 : English
Default                                  : Yes
Forced                                   : No
Original source medium                   : Blu-ray
Audio #2
ID                                       : 3
ID in the original source medium         : 4352 (0x1100)
Format                                   : DTS
Format/Info                              : Digital Theater Systems
Codec ID                                 : A_DTS
Duration                                 : 1 h 29 min
Bit rate mode                            : Constant
Bit rate                                 : 1 509 kb/s
Channel(s)                               : 6 channels
Channel layout                           : C L R Ls Rs LFE
Sampling rate                            : 48.0 kHz
Frame rate                               : 93.750 FPS (512 SPF)
Bit depth                                : 24 bits
Compression mode                         : Lossy
Stream size                              : 969 MiB (5%)
Title                                    : 环绕声 5.1
Language                                 : English
Default                                  : No
Forced                                   : No
Original source medium                   : Blu-ray
Audio #3
ID                                       : 4
ID in the original source medium         : 4353 (0x1101)
Format                                   : DTS XLL
Format/Info                              : Digital Theater Systems
Commercial name                          : DTS-HD Master Audio
Codec ID                                 : A_DTS
Duration                                 : 1 h 29 min
Bit rate mode                            : Variable
Bit rate                                 : 2 116 kb/s
Channel(s)                               : 2 channels
Channel layout                           : L R
Sampling rate                            : 48.0 kHz
Frame rate                               : 93.750 FPS (512 SPF)
Bit depth                                : 24 bits
Compression mode                         : Lossless
Stream size                              : 1.33 GiB (7%)
Title                                    : 立体声
Language                                 : Japanese
Default                                  : No
Forced                                   : No
Original source medium                   : Blu-ray
Audio #4
ID                                       : 5
ID in the original source medium         : 4353 (0x1101)
Format                                   : DTS
Format/Info                              : Digital Theater Systems
Codec ID                                 : A_DTS
Duration                                 : 1 h 29 min
Bit rate mode                            : Constant
Bit rate                                 : 1 509 kb/s
Channel(s)                               : 2 channels
Channel layout                           : L R
Sampling rate                            : 48.0 kHz
Frame rate                               : 93.750 FPS (512 SPF)
Bit depth                                : 24 bits
Compression mode                         : Lossy
Stream size                              : 969 MiB (5%)
Title                                    : 立体声
Language                                 : Japanese
Default                                  : No
Forced                                   : No
Original source medium                   : Blu-ray
Text #1
ID                                       : 6
ID in the original source medium         : 4768 (0x12A0)
Format                                   : PGS
Muxing mode                              : zlib
Codec ID                                 : S_HDMV/PGS
Codec ID/Info                            : Picture based subtitle format used on BDs/HD-DVDs
Duration                                 : 1 h 24 min
Bit rate                                 : 12.4 kb/s
Frame rate                               : 0.275 FPS
Count of elements                        : 1399
Stream size                              : 7.50 MiB (0%)
Language                                 : Japanese
Default                                  : No
Forced                                   : No
Original source medium                   : Blu-ray
Text #2
ID                                       : 7
ID in the original source medium         : 4769 (0x12A1)
Format                                   : PGS
Muxing mode                              : zlib
Codec ID                                 : S_HDMV/PGS
Codec ID/Info                            : Picture based subtitle format used on BDs/HD-DVDs
Duration                                 : 1 h 24 min
Bit rate                                 : 15.6 kb/s
Frame rate                               : 0.275 FPS
Count of elements                        : 1403
Stream size                              : 9.47 MiB (0%)
Language                                 : Japanese
Default                                  : No
Forced                                   : No
Original source medium                   : Blu-ray
Text #3
ID                                       : 8
ID in the original source medium         : 4770 (0x12A2)
Format                                   : PGS
Muxing mode                              : zlib
Codec ID                                 : S_HDMV/PGS
Codec ID/Info                            : Picture based subtitle format used on BDs/HD-DVDs
Duration                                 : 1 h 24 min
Bit rate                                 : 12.7 kb/s
Frame rate                               : 0.275 FPS
Count of elements                        : 1399
Stream size                              : 7.70 MiB (0%)
Language                                 : Japanese
Default                                  : No
Forced                                   : No
Original source medium                   : Blu-ray
Text #4
ID                                       : 9
ID in the original source medium         : 4771 (0x12A3)
Format                                   : PGS
Muxing mode                              : zlib
Codec ID                                 : S_HDMV/PGS
Codec ID/Info                            : Picture based subtitle format used on BDs/HD-DVDs
Duration                                 : 1 h 23 min
Bit rate                                 : 252 b/s
Frame rate                               : 0.002 FPS
Count of elements                        : 12
Stream size                              : 154 KiB (0%)
Language                                 : Japanese
Default                                  : No
Forced                                   : No
Original source medium                   : Blu-ray
Text #5
ID                                       : 10
ID in the original source medium         : 4772 (0x12A4)
Format                                   : PGS
Muxing mode                              : zlib
Codec ID                                 : S_HDMV/PGS
Codec ID/Info                            : Picture based subtitle format used on BDs/HD-DVDs
Duration                                 : 1 h 16 min
Bit rate                                 : 24.7 kb/s
Frame rate                               : 0.244 FPS
Count of elements                        : 1125
Stream size                              : 13.6 MiB (0%)
Language                                 : English
Default                                  : No
Forced                                   : No
Original source medium                   : Blu-ray
Text #6
ID                                       : 11
ID in the original source medium         : 4773 (0x12A5)
Format                                   : PGS
Muxing mode                              : zlib
Codec ID                                 : S_HDMV/PGS
Codec ID/Info                            : Picture based subtitle format used on BDs/HD-DVDs
Duration                                 : 1 h 16 min
Bit rate                                 : 20.1 kb/s
Frame rate                               : 0.288 FPS
Count of elements                        : 1328
Stream size                              : 11.1 MiB (0%)
Language                                 : Chinese
Default                                  : No
Forced                                   : No
Original source medium                   : Blu-ray
Text #7
ID                                       : 12
ID in the original source medium         : 4774 (0x12A6)
Format                                   : PGS
Muxing mode                              : zlib
Codec ID                                 : S_HDMV/PGS
Codec ID/Info                            : Picture based subtitle format used on BDs/HD-DVDs
Duration                                 : 1 h 16 min
Bit rate                                 : 20.7 kb/s
Frame rate                               : 0.288 FPS
Count of elements                        : 1328
Stream size                              : 11.4 MiB (0%)
Language                                 : Chinese
Default                                  : No
Forced                                   : No
Original source medium                   : Blu-ray
Text #8
ID                                       : 13
ID in the original source medium         : 4775 (0x12A7)
Format                                   : PGS
Muxing mode                              : zlib
Codec ID                                 : S_HDMV/PGS
Codec ID/Info                            : Picture based subtitle format used on BDs/HD-DVDs
Duration                                 : 1 h 16 min
Bit rate                                 : 29.1 kb/s
Frame rate                               : 0.310 FPS
Count of elements                        : 1429
Stream size                              : 16.0 MiB (0%)
Language                                 : Chinese
Default                                  : No
Forced                                   : No
Original source medium                   : Blu-ray
Text #9
ID                                       : 14
ID in the original source medium         : 4776 (0x12A8)
Format                                   : PGS
Muxing mode                              : zlib
Codec ID                                 : S_HDMV/PGS
Codec ID/Info                            : Picture based subtitle format used on BDs/HD-DVDs
Duration                                 : 1 h 16 min
Bit rate                                 : 29.4 kb/s
Frame rate                               : 0.310 FPS
Count of elements                        : 1429
Stream size                              : 16.1 MiB (0%)
Language                                 : Chinese
Default                                  : No
Forced                                   : No
Original source medium                   : Blu-ray
Menu
00:00:00.000                             : ja:章节 01
00:10:14.655                             : ja:章节 02
00:19:08.313                             : ja:章节 03
00:31:28.553                             : ja:章节 04
00:43:52.671                             : ja:章节 05
00:54:16.920                             : ja:章节 06
01:00:43.473                             : ja:章节 07
01:07:47.730                             : ja:章节 08
01:15:02.498                             : ja:章节 09
01:21:19.875                             : ja:章节 10
01:29:43.252                             : ja:章节 11
部分资源为软字幕,移动端推荐播放器:MxPlayer,nPlayer,infuse ,其他播放器请自行尝试。
部分资源为软字幕,电脑端推荐播放器:PotPlayer,完美解码,KMPLAYER,其他播放器请自行尝试。






~~~~~~~~~~~~~~~~~~~~~~~~~~~~~~~~~~~~~~~~~
[2019][其它][惊悚][WEB-4K]鲨海逃生[中文字幕].47.Meters.Down.Uncaged.2019.2160p.JPN.UHD.BluRay.x265.10bit.HDR.DTS-H

【文件列表】:


47.Meters.Down.Uncaged.2019.2160p.JPN.UHD.BluRay.x265.10bit.HDR.DTS-HD.MA5....



【下载地址列表】:


游客
文件下载链接就在这里,在您回复评论成功后才能显示。
请勿回复无意义的灌水内容。


下拉页面到最底部回复或者【点击此处快捷回复】,回复后返回此处即可查看下载链接。
如您没注册本站会员,可以点击注册本站,注册后即可回复下载。



软字幕无法在截图上展现,HDR版本/杜比视界版本截图会出现颜色异常,请使用支持的设备播放!






[img][/img]






[img][/img]

(HDR版本/杜比视界版本,截图会出现颜色异常,请使用支持的设备播放)

小贴士:【影视自媒体解说文案请移步:夏至文案解说网 www.xiazhi.vip

上一篇:[更 早][日本][喜剧][BD-1080P]海贼王剧场版3:珍兽岛的乔巴王国[中文字幕].2002.1080p.BluRay.x264.DTS- 4.40GB
下一篇:[2023][欧美][剧情][WEB-4K]逃出白垩纪[HDR/杜比视界双版本][中文字幕].65.2023.2160p.FRA.UHD.BluRay.x265.10bit.HDR.Atmos.TrueH
回复

使用道具 举报

您需要登录后才可以回帖 登录 | 立即注册

本版积分规则

Archiver|手机版|小众纪录片影视聚合

GMT+8, 2024-7-24 22:31 , Processed in 0.183950 second(s), 12 queries , Gzip On, Redis On.

Powered by 小众纪录片影视聚合 @2010-2023

Copyright © 2010-2024, https://www.xzjlp.com/.


免责说明:本站所有内容链接、图文介绍等均来自于互联网网友分享,本站仅支持web页面展示和文字介绍,绝不提供在线观看和存储服务,也不参与录制、上传、压片。若本站收录内容无意侵犯贵司版权,请发邮件到【a885185#163.com】联系本站,我们将在第一时间删除侵权内容。谢谢!

快速回复 返回顶部 返回列表