小众纪录片影视聚合

 找回密码
 立即注册
查看: 8|回复: 0

[蓝光电影] [2023][大陆][动画][WEB-4K]宇宙护卫队:风暴力量[60帧率版本][国语配音/中文字幕].2023.2160p.60fps.WEB-DL.HEVC.10bit.DDP5.1.2Audios-

[复制链接]

113万

主题

113万

帖子

113万

积分

超级版主

Rank: 8Rank: 8

积分
1134409
发表于 2024-7-9 21:11:19 | 显示全部楼层 |阅读模式


[2023][大陆][动画][WEB-4K]宇宙护卫队:风暴力量[60帧率版本][国语配音/中文字幕].2023.2160p.60fps.WEB-DL.HEVC.10bit.DDP5.1.2Audios-

完整标题:宇宙护卫队:风暴力量[60帧率版本][国语配音/中文字幕].2023.2160p.60fps.WEB-DL.HEVC.10bit.DDP5.1.2Audios-NukeHD 16.50GB
◎标  题 宇宙护卫队:风暴力量
◎译  名 Cosmicrew: Storm Force
◎年  代 2023
◎产  地 中国大陆
◎类  别 动画 / 奇幻
◎语  言 汉语普通话
◎上映日期 2023-04-29(中国大陆)
◎IMDb链接 https://www.imdb.com/title//
◎豆瓣评分 7.0/10 (694人评价)
◎豆瓣链接 https://movie.douban.com/subject/36115274/
◎片  长 94分钟
◎导  演 刘彭 Peng Liu
◎编  剧 刘彭 Peng Liu
◎演  员 李靖 Jing Li
       刘若班 Ruoban Liu
       郑炼 Lian Zheng
◎简  介
    十年前,风暴的父亲在战斗中被入侵地球的狂岚博士抓走,风暴的家乡蓝虎村也一同消失。如今,风暴已经成为了宇宙护卫队的队长,并偶然得知父亲风雷和狂岚博士可能被困在异时空--某颗位于平行宇宙的星球。于是风暴和伙伴们通过制造时空缝隙来到异时空,并找到了消失的蓝虎族。原来狂岚博士十年前造成的能量波动意外把自己和蓝虎村传送到 了异时空。狂龙博士囚禁了很多蓝虎村民用于做实验,其中包括风暴的父亲风雷。风暴救出了已被折磨到失忆的父亲,没想到在打开时空裂缝返回地球时,狂岚博士也得以一同返回地球,并率领自己的火恐龙兽军团再次试图占领地球。危难之时,风暴唤醒了失忆的风雷,父子合力带领护卫队其他成员战胜了狂岚博士和火恐龙兽军团,保护了地球安全。##### MediaInfo ######
General
Complete name                            : [宇宙护卫队:风暴力量].Cosmicrew.Storm.Force.2023.2160p.60fps.WEB-DL.HEVC.10bit.DDP5.1.2Audios-NukeHD.mp4
Duration                                 : 1 h 33 min
Overall bit rate                         : 25.3 Mb/s
Video
ID                                       : 1
Format                                   : HEVC
Format/Info                              : High Efficiency Video Coding
Format profile                           : Main [email protected]@Main
Codec ID                                 : hev1
Codec ID/Info                            : High Efficiency Video Coding
Duration                                 : 1 h 33 min
Bit rate                                 : 24.8 Mb/s
Width                                    : 3 840 pixels
Height                                   : 1 608 pixels
Display aspect ratio                     : 2.40:1
Frame rate mode                          : Variable
Frame rate                               : 60.000 FPS
Minimum frame rate                       : 59.960 FPS
Maximum frame rate                       : 60.040 FPS
Color space                              : YUV
Chroma subsampling                       : 4:2:0
Bit depth                                : 10 bits
Bits/(Pixel*Frame)                       : 0.067
Stream size                              : 16.2 GiB (98%)
Color range                              : Limited
Color primaries                          : BT.709
Transfer characteristics                 : BT.709
Matrix coefficients                      : BT.709
Codec configuration box                  : hvcC
Audio #1
ID                                       : 2
Format                                   : E-AC-3
Format/Info                              : Enhanced AC-3
Commercial name                          : Dolby Digital Plus
Codec ID                                 : ec-3
Duration                                 : 1 h 33 min
Bit rate mode                            : Constant
Bit rate                                 : 256 kb/s
Channel(s)                               : 6 channels
Channel layout                           : L R C LFE Ls Rs
Sampling rate                            : 48.0 kHz
Frame rate                               : 31.250 FPS (1536 SPF)
Compression mode                         : Lossy
Stream size                              : 171 MiB (1%)
Title                                    : DDP5.1
Language                                 : Chinese
Service kind                             : Complete Main
Default                                  : No
Alternate group                          : 1
Audio #2
ID                                       : 3
Format                                   : AAC LC
Format/Info                              : Advanced Audio Codec Low Complexity
Codec ID                                 : mp4a-40-2
Duration                                 : 1 h 33 min
Bit rate mode                            : Constant
Bit rate                                 : 192 kb/s
Channel(s)                               : 2 channels
Channel layout                           : L R
Sampling rate                            : 44.1 kHz
Frame rate                               : 43.066 FPS (1024 SPF)
Compression mode                         : Lossy
Stream size                              : 128 MiB (1%)
Title                                    : AAC
Language                                 : Chinese
Default                                  : Yes
Alternate group                          : 1
部分资源为软字幕,移动端推荐播放器:MxPlayer,nPlayer,infuse ,其他播放器请自行尝试。
部分资源为软字幕,电脑端推荐播放器:PotPlayer,完美解码,KMPLAYER,其他播放器请自行尝试。






~~~~~~~~~~~~~~~~~~~~~~~~~~~~~~~~~~~~~~~~~
[2023][大陆][动画][WEB-4K]宇宙护卫队:风暴力量[60帧率版本][国语配音/中文字幕].2023.2160p.60fps.WEB-DL.HEVC.10bit.DDP5.1.2Audios-

【文件列表】:


2023.2160p.60fps.WEB-DL.HEVC.10bit.DDP5.1.2Audios-NukeHD.



【下载地址列表】:


游客
文件下载链接就在这里,在您回复评论成功后才能显示。
请勿回复无意义的灌水内容。


下拉页面到最底部回复或者【点击此处快捷回复】,回复后返回此处即可查看下载链接。
如您没注册本站会员,可以点击注册本站,注册后即可回复下载。



软字幕无法在截图上展现,HDR版本/杜比视界版本截图会出现颜色异常,请使用支持的设备播放!






[img][/img]






[img][/img]

(HDR版本/杜比视界版本,截图会出现颜色异常,请使用支持的设备播放)

小贴士:【影视自媒体解说文案请移步:夏至文案解说网 www.xiazhi.vip

上一篇:[2023][欧美][剧情][WEB-4K]逃出白垩纪[HDR/杜比视界双版本][中文字幕].65.2023.2160p.FRA.UHD.BluRay.x265.10bit.HDR.Atmos.TrueH
下一篇:[2023][欧美][动作][WEB-4K]龙与地下城:侠盗荣耀[60帧率版本][国英多音轨/中文字幕].2023.2160p.60fps.WEB-DL.HEVC.10bit.DDP5.1.4Audios
回复

使用道具 举报

您需要登录后才可以回帖 登录 | 立即注册

本版积分规则

Archiver|手机版|小众纪录片影视聚合

GMT+8, 2024-7-22 05:37 , Processed in 0.109571 second(s), 13 queries , Gzip On, Redis On.

Powered by 小众纪录片影视聚合 @2010-2023

Copyright © 2010-2024, https://www.xzjlp.com/.


免责说明:本站所有内容链接、图文介绍等均来自于互联网网友分享,本站仅支持web页面展示和文字介绍,绝不提供在线观看和存储服务,也不参与录制、上传、压片。若本站收录内容无意侵犯贵司版权,请发邮件到【a885185#163.com】联系本站,我们将在第一时间删除侵权内容。谢谢!

快速回复 返回顶部 返回列表