小众纪录片影视聚合

 找回密码
 立即注册
查看: 9|回复: 0

[蓝光电影] [2023][欧美][动作][WEB-4K]龙与地下城:侠盗荣耀[60帧率版本][国英多音轨/中文字幕].2023.2160p.60fps.WEB-DL.HEVC.10bit.DDP5.1.4Audios

[复制链接]

116万

主题

116万

帖子

116万

积分

超级版主

Rank: 8Rank: 8

积分
1167997
发表于 2024-7-9 21:11:22 | 显示全部楼层 |阅读模式


[2023][欧美][动作][WEB-4K]龙与地下城:侠盗荣耀[60帧率版本][国英多音轨/中文字幕].2023.2160p.60fps.WEB-DL.HEVC.10bit.DDP5.1.4Audios

完整标题:龙与地下城:侠盗荣耀[60帧率版本][国英多音轨/中文字幕].2023.2160p.60fps.WEB-DL.HEVC.10bit.DDP5.1.4Audios-NukeHD 24.24GB
◎标  题 龙与地下城:侠盗荣耀
◎译  名 龙与地下城:盗贼荣耀(台) / 龙与地下城:盗亦有道(港) / 龙与地下城:盗贼中的荣耀 / D&D
◎片  名 Dungeons & Dragons: Honor Among Thieves
◎年  代 2023
◎产  地 美国 / 加拿大
◎类  别 动作 / 奇幻 / 冒险
◎语  言 英语
◎上映日期 2023-03-31(美国 / 中国大陆) / 2023-03-10(西南偏南电影节)
◎IMDb评分 7.3/10 (207216人评价)
◎IMDb链接 https://www.imdb.com/title/tt2906216/
◎豆瓣评分 7.5/10 (147681人评价)
◎豆瓣链接 https://movie.douban.com/subject/26584673/
◎片  长 134分钟
◎导  演 约翰·弗朗西斯·戴利 John Francis Daley
       乔纳森·戈尔茨坦 Jonathan M. Goldstein
◎编  剧 乔纳森·戈尔茨坦 Jonathan M. Goldstein
       约翰·弗朗西斯·戴利 John Francis Daley
       迈克尔·吉里奥 Michael Gilio
       克里斯·麦凯 Chris McKay
       德里克·科尔斯塔 Derek Kolstad
◎演  员 克里斯·派恩 Chris Pine
       米歇尔·罗德里格兹 Michelle Rodriguez
       雷吉-让·佩吉 Regé-Jean Page
       贾斯蒂斯·史密斯 Justice Smith
       索菲娅·莉莉丝 Sophia Lillis
       休·格兰特 Hugh Grant
       克洛伊·科尔曼 Chloe Coleman
       黛茜·海德 Daisy Head
       布莱德利·库珀 Bradley Cooper
       凯尔·希克森 Kyle Hixon
       斯宾塞·怀尔丁 Spencer Wilding
       威尔·欧文 Will Irvine
       尼古拉斯·布兰 Nicholas Blane
       布莱恩·拉金 Bryan Larkin
       萨拉·阿曼科瓦 Sarah Amankwah
       科林·卡内基 Colin Carnegie
       丹·普尔 Dan Poole
       伊恩·汉摩尔 Ian Hanmore
       保罗·巴泽利 Paul Bazely
       肯尼斯·克拉德 Kenneth Collard
       杰森·王 Jason Wong
       海莉·玛丽·艾克斯 Hayley-Marie Axe
       达伦·肯特 Darren Kent
       菲利普·布罗迪 Philip Brodie
       阿皮·普拉特 Appy Pratt
       艾德·奥斯蒙德 Edd Osmond
       妮娅姆·麦柯马克 Niamh McCormack
       安东·辛普森-泰迪 Anton Simpson-Tidy
       特雷弗·坎斯瓦兰 Trevor Kaneswaran
       谢默斯·奥哈拉 Seamus O'Hara
       埃德加·阿布拉姆 Edgar Abram
       R·F·戴利 R.F. Daley
       裘德·希尔 Jude Hill
       大卫·索博洛夫 David Sobolov
       大卫·斯坦博拉 David Stanbra
       约翰·弗朗西斯·戴利 John Francis Daley
       索菲亚·埃莱尼 Sophia Eleni
◎简  介
    艾德金(克里斯·派恩 Chris Pine 饰)是一名吟游诗人,在一次盗宝行动中,他的贪婪导致了妻子的死亡。之后,野蛮人霍尔盖(米歇尔·罗德里格兹 Michelle Rodriguez 饰)出现在了颓废的艾德金身边,和他共同抚养女儿琪拉(克洛伊·科尔曼 Chloe Coleman 饰)。                                    琪拉长大之后,艾德金、霍尔盖带着琪拉和她的舅舅福奇(休·格兰特 Hugh Grant 饰)等人组成了一支盗宝团队,哪知道在一次行动之中失手了,最终,艾德金和霍尔盖锒铛入狱。一晃眼多年过去,艾德金和霍尔盖联手越狱,并且决定夺回他们当年未得手的宝物,为了达成目的,他们还吸纳了菜鸟术士西蒙(贾斯蒂斯·史密斯 Justice Smith 饰)和德鲁伊女孩多立克(索菲娅·莉莉丝 Sophia Lillis 饰)。就在艾德金一行人离宝物越来越近之际,当年带着琪拉逃跑的福奇,他的真面目也渐渐的展露了出来。##### MediaInfo ######
General
Complete name                            : [龙与地下城:侠盗荣耀].Dungeons.and.Dragons.Honor.Among.Thieves.2023.2160p.60fps.WEB-DL.HEVC.10bit.DDP5.1.4Audios-NukeHD.mp4
Duration                                 : 2 h 14 min
Overall bit rate                         : 25.8 Mb/s
Video
ID                                       : 1
Format                                   : HEVC
Format/Info                              : High Efficiency Video Coding
Format profile                           : Main [email protected]@Main
Codec ID                                 : hev1
Codec ID/Info                            : High Efficiency Video Coding
Duration                                 : 2 h 14 min
Bit rate                                 : 24.9 Mb/s
Width                                    : 3 840 pixels
Height                                   : 1 608 pixels
Display aspect ratio                     : 2.40:1
Frame rate mode                          : Variable
Frame rate                               : 60.000 FPS
Minimum frame rate                       : 59.960 FPS
Maximum frame rate                       : 60.040 FPS
Color space                              : YUV
Chroma subsampling                       : 4:2:0
Bit depth                                : 10 bits
Bits/(Pixel*Frame)                       : 0.067
Stream size                              : 23.4 GiB (96%)
Color range                              : Limited
Color primaries                          : BT.709
Transfer characteristics                 : BT.709
Matrix coefficients                      : BT.709
Codec configuration box                  : hvcC
Audio #1
ID                                       : 2
Format                                   : E-AC-3
Format/Info                              : Enhanced AC-3
Commercial name                          : Dolby Digital Plus
Codec ID                                 : ec-3
Duration                                 : 2 h 14 min
Bit rate mode                            : Constant
Bit rate                                 : 256 kb/s
Channel(s)                               : 6 channels
Channel layout                           : L R C LFE Ls Rs
Sampling rate                            : 48.0 kHz
Frame rate                               : 31.250 FPS (1536 SPF)
Compression mode                         : Lossy
Stream size                              : 246 MiB (1%)
Title                                    : DDP5.1,英语
Language                                 : English
Service kind                             : Complete Main
Default                                  : Yes
Alternate group                          : 1
Audio #2
ID                                       : 3
Format                                   : E-AC-3
Format/Info                              : Enhanced AC-3
Commercial name                          : Dolby Digital Plus
Codec ID                                 : ec-3
Duration                                 : 2 h 14 min
Bit rate mode                            : Constant
Bit rate                                 : 256 kb/s
Channel(s)                               : 6 channels
Channel layout                           : L R C LFE Ls Rs
Sampling rate                            : 48.0 kHz
Frame rate                               : 31.250 FPS (1536 SPF)
Compression mode                         : Lossy
Stream size                              : 246 MiB (1%)
Title                                    : DDP5.1,国语
Language                                 : Chinese
Service kind                             : Complete Main
Default                                  : Yes
Alternate group                          : 2
Audio #3
ID                                       : 4
Format                                   : AAC LC
Format/Info                              : Advanced Audio Codec Low Complexity
Codec ID                                 : mp4a-40-2
Duration                                 : 2 h 14 min
Bit rate mode                            : Constant
Bit rate                                 : 192 kb/s
Channel(s)                               : 2 channels
Channel layout                           : L R
Sampling rate                            : 44.1 kHz
Frame rate                               : 43.066 FPS (1024 SPF)
Compression mode                         : Lossy
Stream size                              : 184 MiB (1%)
Title                                    : AAC2.0,英语
Language                                 : English
Default                                  : Yes
Alternate group                          : 3
Audio #4
ID                                       : 5
Format                                   : AAC LC
Format/Info                              : Advanced Audio Codec Low Complexity
Codec ID                                 : mp4a-40-2
Duration                                 : 2 h 14 min
Bit rate mode                            : Constant
Bit rate                                 : 192 kb/s
Channel(s)                               : 2 channels
Channel layout                           : L R
Sampling rate                            : 44.1 kHz
Frame rate                               : 43.066 FPS (1024 SPF)
Compression mode                         : Lossy
Stream size                              : 184 MiB (1%)
Title                                    : AAC2.0,国语
Language                                 : Chinese
Default                                  : Yes
Alternate group                          : 4
部分资源为软字幕,移动端推荐播放器:MxPlayer,nPlayer,infuse ,其他播放器请自行尝试。
部分资源为软字幕,电脑端推荐播放器:PotPlayer,完美解码,KMPLAYER,其他播放器请自行尝试。






~~~~~~~~~~~~~~~~~~~~~~~~~~~~~~~~~~~~~~~~~
[2023][欧美][动作][WEB-4K]龙与地下城:侠盗荣耀[60帧率版本][国英多音轨/中文字幕].2023.2160p.60fps.WEB-DL.HEVC.10bit.DDP5.1.4Audios

【文件列表】:


2023.2160p.60fps.WEB-DL.HEVC.10bit.DDP5.1.4Audios-NukeHD.



【下载地址列表】:


游客
文件下载链接就在这里,在您回复评论成功后才能显示。
请勿回复无意义的灌水内容。


下拉页面到最底部回复或者【点击此处快捷回复】,回复后返回此处即可查看下载链接。
如您没注册本站会员,可以点击注册本站,注册后即可回复下载。



软字幕无法在截图上展现,HDR版本/杜比视界版本截图会出现颜色异常,请使用支持的设备播放!






[img][/img]






[img][/img]

(HDR版本/杜比视界版本,截图会出现颜色异常,请使用支持的设备播放)

小贴士:【影视自媒体解说文案请移步:夏至文案解说网 www.xiazhi.vip

上一篇:[2023][大陆][动画][WEB-4K]宇宙护卫队:风暴力量[60帧率版本][国语配音/中文字幕].2023.2160p.60fps.WEB-DL.HEVC.10bit.DDP5.1.2Audios-
下一篇:[更 早][其它][动作][WEB-4K]荒野大镖客[中文字幕].A.Fistful.of.Dollars.1964.2160p.ITA.UHD.BluRay.x265.10bit.DTS-HD.MA5
回复

使用道具 举报

您需要登录后才可以回帖 登录 | 立即注册

本版积分规则

Archiver|手机版|小众纪录片影视聚合

GMT+8, 2024-7-25 02:19 , Processed in 0.270089 second(s), 12 queries , Gzip On, Redis On.

Powered by 小众纪录片影视聚合 @2010-2023

Copyright © 2010-2024, https://www.xzjlp.com/.


免责说明:本站所有内容链接、图文介绍等均来自于互联网网友分享,本站仅支持web页面展示和文字介绍,绝不提供在线观看和存储服务,也不参与录制、上传、压片。若本站收录内容无意侵犯贵司版权,请发邮件到【a885185#163.com】联系本站,我们将在第一时间删除侵权内容。谢谢!

快速回复 返回顶部 返回列表