小众纪录片影视聚合

 找回密码
 立即注册
查看: 10|回复: 0

[蓝光电影] [2018][欧美][剧情][WEB-4K]骡子[简繁英字幕].The.Mule.2018.2160p.UHD.BluRay.x265.10bit.HDR.DTS-HD.MA.5.1- 18.

[复制链接]

113万

主题

113万

帖子

113万

积分

超级版主

Rank: 8Rank: 8

积分
1134816
发表于 2024-7-9 21:11:48 | 显示全部楼层 |阅读模式


[2018][欧美][剧情][WEB-4K]骡子[简繁英字幕].The.Mule.2018.2160p.UHD.BluRay.x265.10bit.HDR.DTS-HD.MA.5.1- 18.

完整标题:骡子[简繁英字幕].The.Mule.2018.2160p.UHD.BluRay.x265.10bit.HDR.DTS-HD.MA.5.1-SONYHD 18.92GB
◎标  题 骡子
◎译  名 毒行侠(港) / 赌命运转手(台) / 走私运毒者
◎片  名 The Mule
◎年  代 2018
◎产  地 美国
◎类  别 剧情 / 犯罪
◎语  言 英语
◎上映日期 2019-08-26(中国大陆) / 2018-12-14(美国)
◎IMDb评分 7/10 (142735人评价)
◎IMDb链接 https://www.imdb.com/title/tt7959026/
◎豆瓣评分 7.9/10 (135854人评价)
◎豆瓣链接 https://movie.douban.com/subject/30135113/
◎片  长 116分钟 / 112分钟(中国大陆)
◎导  演 克林特·伊斯特伍德 Clint Eastwood
◎编  剧 尼克·申克 Nick Schenk
◎演  员 克林特·伊斯特伍德 Clint Eastwood
       布莱德利·库珀 Bradley Cooper
       劳伦斯·菲什伯恩 Laurence Fishburne
       迈克尔·佩纳 Michael Peña
       黛安·韦斯特 Dianne Wiest
       安迪·加西亚 Andy Garcia
       艾莉森·伊斯特伍德 Alison Eastwood
       泰莎·法米加 Taissa Farmiga
       伊格纳西奥·塞利齐奥 Ignacio Serricchio
       劳恩·迪恩 Loren Dean
       尤金·科德罗 Eugene Cordero
       理查德·赫德 Richard Herd
       乔·奈泽维奇 Joe Knezevich
       维克多·罗塞克 Victor Rasuk
       罗伯特·拉萨多 Robert LaSardo
       诺尔·古格雷米 Noel Gugliemi
       小克利夫顿·克林斯 Clifton Collins Jr.
       丹尼尔·蒙卡达 Daniel Moncada
       保罗·阿拉约 Paul Alayo
       卡里姆·J.格里梅斯 Kareem J. Grimes
       迭戈·卡塔诺 Diego Cataño
       迪伦·库斯曼 Dylan Kussman
       皮特·布里斯 Pete Burris
       曼尼·蒙塔纳 Manny Montana
       洛博·塞巴斯蒂安 Lobo Sebastian
       泰丝·马里斯·金凯德 Tess Malis Kincaid
       贝琪·阿尔特林格 Becky Altringer
       蒂莫西·卡尔 Timothy Carr
       吉尔·弗林特 Jill Flint
       凯蒂·吉尔 Katie Gill
       杰伦·戈登 Jaylon Gordon
       杰伊·古铁雷斯 Jay Gutierrez
       塞西尔·M·亨利 Cecil M. Henry
       雷·埃尔南德斯 Rey Hernandez
       肖恩·麦克米伦 Shaun McMillan
       德文·奥格登 Devon Ogden
       帕蒂·舍尔哈斯 Patti Schellhaas
       德里克·罗素 Derek Russo
       詹姆斯·威廉·巴拉德 James William Ballard
◎简  介
    厄尔(克林特·伊斯特伍德 Clint Eastwood 饰)是一名独居的八旬老人,正在面临非常严峻的财务危机,他唯一的住所即将被拍卖用来抵扣债务,在这个节骨眼上,厄尔得到了一份司机的工作,但厄尔所要运送的却并非什么乘客,而是毒品。就这样,厄尔成为了墨西哥贩毒集团中的一员。                                    不得不承认,厄尔将这份工作完成的非常出色,出色到贩毒集团专门为他配备了对接人员。可就在厄尔的财务问题得到解决的同时,他的反常举动也遭到了美国缉毒局特工科林(布莱德利·库珀 Bradley Cooper 饰)的注意。如果继续在法律的边缘试探,厄尔就有可能锒铛入狱,但如果就此金盆洗手,知道太多秘密的厄尔亦有可能被毒枭灭口。##### MediaInfo ######
General
Unique ID                                : 150065799126655957780695513757601048168 (0x70E59F2244AEE17192598F27FA052668)
Complete name                            : The.Mule.2018.2160p.UHD.BluRay.x265.10bit.HDR.DTS-HD.MA.5.1-SONYHD.mkv
Duration                                 : 1 h 56 min
Overall bit rate mode                    : Variable
Overall bit rate                         : 23.3 Mb/s
Video
ID                                       : 1
Format                                   : HEVC
Format/Info                              : High Efficiency Video Coding
Format profile                           : Main [email protected]@High
HDR format                               : SMPTE ST 2086, HDR10 compatible
Codec ID                                 : V_MPEGH/ISO/HEVC
Duration                                 : 1 h 56 min
Bit rate                                 : 19.8 Mb/s
Width                                    : 3 840 pixels
Height                                   : 1 608 pixels
Display aspect ratio                     : 2.40:1
Frame rate mode                          : Constant
Frame rate                               : 23.976 (24000/1001) FPS
Color space                              : YUV
Chroma subsampling                       : 4:2:0 (Type 2)
Bit depth                                : 10 bits
Bits/(Pixel*Frame)                       : 0.134
Stream size                              : 16.1 GiB (85%)
Writing library                          : x265 3.5g2b25c9ba0+45:[Windows][MSVC 1926][64 bit] Yuuki 10bit+8bit+12bit
Encoding settings                        : rc=crf / crf=18.9700 / qcomp=0.60 / qpstep=4 / stats-write=0 / stats-read=0 / vbv-maxrate=160000 / vbv-bufsize=160000 / vbv-init=0.9 / min-vbv-fullness=50.0 / max-vbv-fullness=80.0 / crf-max=0.0 / crf-min=0.0 / no-lossless / no-cu-lossless / aq-mode=3 / aq-strength=0.70 / cbqpoffs=0 / crqpoffs=0 / ipratio=1.40 / pbratio=1.30 / psy-rd=2.00 / psy-rdoq=2.00 / deblock=-3:-3 / ref=6 / limit-refs=1 / no-limit-modes / bframes=11 / b-adapt=2 / bframe-bias=0 / b-pyramid / b-intra / weightp / weightb / min-keyint=1 / max-keyint=240 / rc-lookahead=72 / gop-lookahead=0 / scenecut=40 / hist-scenecut=0 / radl=0 / max-cu-size=64 / min-cu-size=8 / me=3 / subme=6 / merange=48 / rdoq-level=2 / rd=4 / rdpenalty=0 / dynamic-rd=0.00 / no-rd-refine / ----- / no-cutree / no-sao / no-rect / no-amp / no-open-gop / wpp / no-pmode / no-pme / no-psnr / no-ssim / nr-intra=0 / nr-inter=0 / no-constrained-intra / no-strong-intra-smoothing / max-tu-size=32 / tu-inter-depth=4 / tu-intra-depth=4 / limit-tu=0 / qg-size=32 / qpmax=69 / qpmin=0 / ----- / cpuid=1111039 / frame-threads=4 / numa-pools=+ / log-level=2 / input-csp=1 / input-res=3840x1608 / interlace=0 / level-idc=51 / high-tier=1 / uhd-bd=0 / no-allow-non-conformance / repeat-headers / aud / no-hrd / info / hash=0 / no-temporal-layers / lookahead-slices=0 / no-splice / no-intra-refresh / no-ssim-rd / signhide / no-tskip / max-merge=5 / temporal-mvp / no-frame-dup / no-hme / analyze-src-pics / no-sao-non-deblock / selective-sao=0 / early-skip / rskip / no-fast-intra / no-tskip-fast / no-splitrd-skip / zone-count=0 / no-strict-cbr / no-rc-grain / no-const-vbv / sar=0 / overscan=0 / videoformat=5 / range=0 / colorprim=9 / transfer=16 / colormatrix=9 / chromaloc=1 / chromaloc-top=2 / chromaloc-bottom=2 / display-window=0 / master-display=G(13250,34500)B(7500,3000)R(34000,16000)WP(15635,16450)L(40000000,50) / cll=2111,161 / min-luma=0 / max-luma=1023 / log2-max-poc-lsb=8 / vui-timing-info / vui-hrd-info / slices=1 / no-opt-qp-pps / no-opt-ref-list-length-pps / no-multi-pass-opt-rps / scenecut-bias=0.05 / hist-threshold=0.03 / no-opt-cu-delta-qp / no-aq-motion / hdr10 / hdr10-opt / no-dhdr10-opt / no-idr-recovery-sei / analysis-reuse-level=0 / analysis-save-reuse-level=0 / analysis-load-reuse-level=0 / scale-factor=0 / refine-intra=0 / refine-inter=0 / refine-mv=1 / refine-ctu-distortion=0 / no-limit-sao / ctu-info=0 / no-lowpass-dct / refine-analysis-type=0 / copy-pic=1 / max-ausize-factor=1.0 / no-dynamic-refine / no-single-sei / no-hevc-aq / no-svt / no-field / qp-adaptation-range=1.00 / scenecut-aware-qp=0conformance-window-offsets / right=0 / bottom=0 / decoder-max-rate=0 / no-vbv-live-multi-pass
Default                                  : Yes
Forced                                   : No
Color range                              : Limited
Color primaries                          : BT.2020
Transfer characteristics                 : PQ
Matrix coefficients                      : BT.2020 non-constant
Mastering display color primaries        : Display P3
Mastering display luminance              : min: 0.0050 cd/m2, max: 4000 cd/m2
Maximum Content Light Level              : 2111 cd/m2
Maximum Frame-Average Light Level        : 161 cd/m2
Audio
ID                                       : 2
ID in the original source medium         : 4352 (0x1100)
Format                                   : DTS XLL
Format/Info                              : Digital Theater Systems
Commercial name                          : DTS-HD Master Audio
Codec ID                                 : A_DTS
Duration                                 : 1 h 56 min
Bit rate mode                            : Variable
Bit rate                                 : 3 356 kb/s
Channel(s)                               : 6 channels
Channel layout                           : C L R Ls Rs LFE
Sampling rate                            : 48.0 kHz
Frame rate                               : 93.750 FPS (512 SPF)
Bit depth                                : 24 bits
Compression mode                         : Lossless
Stream size                              : 2.73 GiB (14%)
Title                                    : English
Language                                 : English
Default                                  : Yes
Forced                                   : No
Original source medium                   : Blu-ray
Text #1
ID                                       : 3
ID in the original source medium         : 4775 (0x12A7)
Format                                   : PGS
Muxing mode                              : zlib
Codec ID                                 : S_HDMV/PGS
Codec ID/Info                            : Picture based subtitle format used on BDs/HD-DVDs
Duration                                 : 1 h 48 min
Bit rate                                 : 55.2 kb/s
Frame rate                               : 0.503 FPS
Count of elements                        : 3267
Stream size                              : 42.7 MiB (0%)
Title                                    : chs&eng
Language                                 : Chinese
Default                                  : Yes
Forced                                   : No
Original source medium                   : Blu-ray
Text #2
ID                                       : 4
ID in the original source medium         : 4776 (0x12A8)
Format                                   : PGS
Muxing mode                              : zlib
Codec ID                                 : S_HDMV/PGS
Codec ID/Info                            : Picture based subtitle format used on BDs/HD-DVDs
Duration                                 : 1 h 48 min
Bit rate                                 : 55.4 kb/s
Frame rate                               : 0.503 FPS
Count of elements                        : 3267
Stream size                              : 42.9 MiB (0%)
Title                                    : cht&eng
Language                                 : Chinese
Default                                  : No
Forced                                   : No
Original source medium                   : Blu-ray
Text #3
ID                                       : 5
ID in the original source medium         : 4777 (0x12A9)
Format                                   : PGS
Muxing mode                              : zlib
Codec ID                                 : S_HDMV/PGS
Codec ID/Info                            : Picture based subtitle format used on BDs/HD-DVDs
Duration                                 : 1 h 48 min
Bit rate                                 : 32.1 kb/s
Frame rate                               : 0.503 FPS
Count of elements                        : 3267
Stream size                              : 24.9 MiB (0%)
Title                                    : chs
Language                                 : Chinese
Default                                  : No
Forced                                   : No
Original source medium                   : Blu-ray
Text #4
ID                                       : 6
ID in the original source medium         : 4778 (0x12AA)
Format                                   : PGS
Muxing mode                              : zlib
Codec ID                                 : S_HDMV/PGS
Codec ID/Info                            : Picture based subtitle format used on BDs/HD-DVDs
Duration                                 : 1 h 48 min
Bit rate                                 : 32.3 kb/s
Frame rate                               : 0.503 FPS
Count of elements                        : 3267
Stream size                              : 25.0 MiB (0%)
Title                                    : cht
Language                                 : Chinese
Default                                  : No
Forced                                   : No
Original source medium                   : Blu-ray
Text #5
ID                                       : 7
ID in the original source medium         : 4770 (0x12A2)
Format                                   : PGS
Muxing mode                              : zlib
Codec ID                                 : S_HDMV/PGS
Codec ID/Info                            : Picture based subtitle format used on BDs/HD-DVDs
Duration                                 : 1 h 55 min
Bit rate                                 : 27.7 kb/s
Frame rate                               : 0.439 FPS
Count of elements                        : 3034
Stream size                              : 22.9 MiB (0%)
Title                                    : BD cht
Language                                 : Chinese
Default                                  : No
Forced                                   : No
Original source medium                   : Blu-ray
Text #6
ID                                       : 8
ID in the original source medium         : 4768 (0x12A0)
Format                                   : PGS
Muxing mode                              : zlib
Codec ID                                 : S_HDMV/PGS
Codec ID/Info                            : Picture based subtitle format used on BDs/HD-DVDs
Duration                                 : 1 h 47 min
Bit rate                                 : 38.6 kb/s
Frame rate                               : 0.530 FPS
Count of elements                        : 3402
Stream size                              : 29.6 MiB (0%)
Title                                    : eng
Language                                 : English
Default                                  : No
Forced                                   : No
Original source medium                   : Blu-ray
Menu
00:00:00.000                             : en:Chapter 01
00:06:45.822                             : en:Chapter 02
00:15:27.884                             : en:Chapter 03
00:23:24.236                             : en:Chapter 04
00:32:22.481                             : en:Chapter 05
00:40:29.885                             : en:Chapter 06
00:48:20.563                             : en:Chapter 07
00:57:55.346                             : en:Chapter 08
01:07:17.407                             : en:Chapter 09
01:16:17.363                             : en:Chapter 10
01:23:18.783                             : en:Chapter 11
01:32:20.158                             : en:Chapter 12
01:39:12.947                             : en:Chapter 13
01:46:17.578                             : en:Chapter 14
01:48:52.442                             : en:Chapter 15
部分资源为软字幕,移动端推荐播放器:MxPlayer,nPlayer,infuse ,其他播放器请自行尝试。
部分资源为软字幕,电脑端推荐播放器:PotPlayer,完美解码,KMPLAYER,其他播放器请自行尝试。






~~~~~~~~~~~~~~~~~~~~~~~~~~~~~~~~~~~~~~~~~
[2018][欧美][剧情][WEB-4K]骡子[简繁英字幕].The.Mule.2018.2160p.UHD.BluRay.x265.10bit.HDR.DTS-HD.MA.5.1- 18.

【文件列表】:


The.Mule.2018.2160p.UHD.BluRay.x265.10bit.HDR.DTS-HD.MA.5.1-SONYHD.



【下载地址列表】:


游客
文件下载链接就在这里,在您回复评论成功后才能显示。
请勿回复无意义的灌水内容。


下拉页面到最底部回复或者【点击此处快捷回复】,回复后返回此处即可查看下载链接。
如您没注册本站会员,可以点击注册本站,注册后即可回复下载。



软字幕无法在截图上展现,HDR版本/杜比视界版本截图会出现颜色异常,请使用支持的设备播放!






[img][/img]






[img][/img]

(HDR版本/杜比视界版本,截图会出现颜色异常,请使用支持的设备播放)

小贴士:【影视自媒体解说文案请移步:夏至文案解说网 www.xiazhi.vip

上一篇:[2014][韩国][动作][WEB-1080P]朝鲜美女三剑客[中文字幕].The.Huntresses.2014.1080p.DSNP.WEB-DL.DDP.5.1.H.264- 4.95GB
下一篇:[更 早][印度][剧情][BD-1080P]大河之歌[简繁英字幕].The.Unvanquished.1956.CC.1080p.BluRay.x264.FLAC.1.0- 9.73GB
回复

使用道具 举报

您需要登录后才可以回帖 登录 | 立即注册

本版积分规则

Archiver|手机版|小众纪录片影视聚合

GMT+8, 2024-7-22 07:38 , Processed in 0.072565 second(s), 12 queries , Gzip On, Redis On.

Powered by 小众纪录片影视聚合 @2010-2023

Copyright © 2010-2024, https://www.xzjlp.com/.


免责说明:本站所有内容链接、图文介绍等均来自于互联网网友分享,本站仅支持web页面展示和文字介绍,绝不提供在线观看和存储服务,也不参与录制、上传、压片。若本站收录内容无意侵犯贵司版权,请发邮件到【a885185#163.com】联系本站,我们将在第一时间删除侵权内容。谢谢!

快速回复 返回顶部 返回列表