小众纪录片影视聚合

 找回密码
 立即注册
查看: 12|回复: 0

[蓝光电影] [更 早][印度][剧情][BD-1080P]大河之歌[简繁英字幕].The.Unvanquished.1956.CC.1080p.BluRay.x264.FLAC.1.0- 9.73GB

[复制链接]

112万

主题

112万

帖子

112万

积分

超级版主

Rank: 8Rank: 8

积分
1128817
发表于 7 天前 | 显示全部楼层 |阅读模式


[更 早][印度][剧情][BD-1080P]大河之歌[简繁英字幕].The.Unvanquished.1956.CC.1080p.BluRay.x264.FLAC.1.0- 9.73GB

完整标题:大河之歌[简繁英字幕].The.Unvanquished.1956.CC.1080p.BluRay.x264.FLAC.1.0-SONYHD 9.73GB
◎标  题 大河之歌
◎译  名 不屈者 / 质朴的人 / 不可征服的人 / Aparajito / The Unvanquished
◎片  名 অপরাজিত
◎年  代 1956
◎产  地 印度
◎类  别 剧情
◎语  言 孟加拉语 / 英语
◎上映日期 1956-10-11(印度)
◎IMDb评分 8.2/10 (15629人评价)
◎IMDb链接 https://www.imdb.com/title/tt0048956/
◎豆瓣评分 8.7/10 (5711人评价)
◎豆瓣链接 https://movie.douban.com/subject/1306559/
◎片  长 110分钟
◎导  演 萨蒂亚吉特·雷伊 Satyajit Ray
◎编  剧 萨蒂亚吉特·雷伊 Satyajit Ray
       比耶迪胡山·班德约帕德赫亚 Bibhutibhushan Bandyopadhyay
◎演  员 萨玛兰·加萨尔 Smaran Ghosal
       卡利·班纳吉 Kali Bannerjee
       卡奴·班纳杰 Kanu Bannerjee
       卡鲁娜·班纳杰 Karuna Bannerjee
       苏迪普塔·洛伊 Sudipta Roy
       皮纳基·森古普塔 Pinaki Sengupta
       Charuprakash Ghosh Charuprakash Ghosh
◎简  介
    转眼之间,阿普(Smaran Ghosal 饰)长大了,然而,生活却并没有因此而变得更加宽容。和父母搬去博纳斯之后没多久,阿普的父亲就永远的离开了他的家庭,就这样,阿普和母亲过起了相依为命的生活。                                    母亲希望阿普能够成为一名神父,但阿普却并不这么认为,他希望能够就读正规的学校。最终,母亲顺从了阿普的想法。阿普没有让母亲失望,他用出色的成绩和光明的前途向母亲证明了他的用功和努力。阿普得到了念大学的机会,但是,对于他贫困的家庭来说,这个消息既是喜讯,亦是噩耗,为此,阿普和母亲之间发生了激烈的争吵,这一次,在亲情和未来之间,阿普和母亲会做出怎样的选择呢?##### MediaInfo ######
General
Unique ID                                : 123627105916009542682256618604344793516 (0x5D01B6EAEC92CE17BA615E5722E259AC)
Complete name                            : The.Unvanquished.1956.CC.1080p.BluRay.x264.FLAC.1.0-SONYHD.mkv
Duration                                 : 1 h 50 min
Overall bit rate mode                    : Variable
Overall bit rate                         : 12.6 Mb/s
Video
ID                                       : 1
Format                                   : AVC
Format/Info                              : Advanced Video Codec
Format profile                           : [email protected]
Format settings                          : CABAC / 4 Ref Frames
Format settings, CABAC                   : Yes
Format settings, Reference frames        : 4 frames
Codec ID                                 : V_MPEG4/ISO/AVC
Duration                                 : 1 h 50 min
Bit rate                                 : 12.4 Mb/s
Width                                    : 1 480 pixels
Height                                   : 1 080 pixels
Display aspect ratio                     : 1.370
Frame rate mode                          : Constant
Frame rate                               : 23.976 (24000/1001) FPS
Color space                              : YUV
Chroma subsampling                       : 4:2:0
Bit depth                                : 8 bits
Scan type                                : Progressive
Bits/(Pixel*Frame)                       : 0.323
Stream size                              : 9.52 GiB (98%)
Writing library                          : x264 core 164 r3107+55M 1028c06 t_mod_New [(8 & 10)-bit@all X86_64]
Encoding settings                        : cabac=1 / ref=4 / deblock=1:-3:-3 / analyse=0x3:0x133 / me=umh / subme=11 / psy=1 / fade_compensate=0.00 / psy_rd=1.00:0.00 / mixed_ref=1 / me_range=48 / chroma_me=1 / trellis=2 / 8x8dct=1 / cqm=0 / deadzone=21,11 / fast_pskip=0 / chroma_qp_offset=-3 / threads=34 / lookahead_threads=8 / sliced_threads=0 / nr=0 / decimate=0 / interlaced=0 / bluray_compat=0 / constrained_intra=0 / fgo=0 / bframes=11 / b_pyramid=2 / b_adapt=2 / b_bias=0 / direct=3 / weightb=1 / open_gop=0 / weightp=2 / keyint=240 / keyint_min=1 / scenecut=40 / intra_refresh=0 / rc_lookahead=72 / rc=crf / mbtree=0 / crf=22.0000 / qcomp=0.65 / qpmin=0:0:0 / qpmax=69:69:69 / qpstep=4 / vbv_maxrate=62500 / vbv_bufsize=78125 / crf_max=0.0 / nal_hrd=none / filler=0 / ip_ratio=1.40 / pb_ratio=1.30 / aq=3:0.70 / aq-sensitivity=10.00 / aq-factor=1.00:1.00:1.00 / aq2=0 / aq3=0
Default                                  : Yes
Forced                                   : No
Audio
ID                                       : 2
Format                                   : FLAC
Format/Info                              : Free Lossless Audio Codec
Codec ID                                 : A_FLAC
Duration                                 : 1 h 50 min
Bit rate mode                            : Variable
Bit rate                                 : 222 kb/s
Channel(s)                               : 1 channel
Channel layout                           : C
Sampling rate                            : 48.0 kHz
Frame rate                               : 11.719 FPS (4096 SPF)
Bit depth                                : 16 bits
Compression mode                         : Lossless
Stream size                              : 175 MiB (2%)
Title                                    : Bengali
Writing library                          : libFLAC 1.2.1 (UTC 2007-09-17)
Language                                 : Bengali
Default                                  : Yes
Forced                                   : No
Text #1
ID                                       : 3
ID in the original source medium         : 4609 (0x1201)
Format                                   : PGS
Muxing mode                              : zlib
Codec ID                                 : S_HDMV/PGS
Codec ID/Info                            : Picture based subtitle format used on BDs/HD-DVDs
Duration                                 : 1 h 49 min
Bit rate                                 : 25.7 kb/s
Frame rate                               : 0.248 FPS
Count of elements                        : 1623
Stream size                              : 20.1 MiB (0%)
Title                                    : chs&eng
Language                                 : Chinese
Default                                  : Yes
Forced                                   : No
Original source medium                   : Blu-ray
Text #2
ID                                       : 4
ID in the original source medium         : 4610 (0x1202)
Format                                   : PGS
Muxing mode                              : zlib
Codec ID                                 : S_HDMV/PGS
Codec ID/Info                            : Picture based subtitle format used on BDs/HD-DVDs
Duration                                 : 1 h 49 min
Bit rate                                 : 25.8 kb/s
Frame rate                               : 0.248 FPS
Count of elements                        : 1623
Stream size                              : 20.2 MiB (0%)
Title                                    : cht&eng
Language                                 : Chinese
Default                                  : No
Forced                                   : No
Original source medium                   : Blu-ray
Text #3
ID                                       : 5
ID in the original source medium         : 4611 (0x1203)
Format                                   : PGS
Muxing mode                              : zlib
Codec ID                                 : S_HDMV/PGS
Codec ID/Info                            : Picture based subtitle format used on BDs/HD-DVDs
Duration                                 : 1 h 49 min
Bit rate                                 : 15.1 kb/s
Frame rate                               : 0.248 FPS
Count of elements                        : 1623
Stream size                              : 11.8 MiB (0%)
Title                                    : chs
Language                                 : Chinese
Default                                  : No
Forced                                   : No
Original source medium                   : Blu-ray
Text #4
ID                                       : 6
ID in the original source medium         : 4612 (0x1204)
Format                                   : PGS
Muxing mode                              : zlib
Codec ID                                 : S_HDMV/PGS
Codec ID/Info                            : Picture based subtitle format used on BDs/HD-DVDs
Duration                                 : 1 h 49 min
Bit rate                                 : 15.2 kb/s
Frame rate                               : 0.248 FPS
Count of elements                        : 1623
Stream size                              : 11.9 MiB (0%)
Title                                    : cht
Language                                 : Chinese
Default                                  : No
Forced                                   : No
Original source medium                   : Blu-ray
Text #5
ID                                       : 7
ID in the original source medium         : 4608 (0x1200)
Format                                   : PGS
Muxing mode                              : zlib
Codec ID                                 : S_HDMV/PGS
Codec ID/Info                            : Picture based subtitle format used on BDs/HD-DVDs
Duration                                 : 1 h 48 min
Bit rate                                 : 24.2 kb/s
Frame rate                               : 0.232 FPS
Count of elements                        : 1516
Stream size                              : 18.8 MiB (0%)
Title                                    : eng
Language                                 : English
Default                                  : No
Forced                                   : No
Original source medium                   : Blu-ray
Menu
00:00:00.000                             : en:Chapter 01
00:02:33.528                             : en:Chapter 02
00:11:39.198                             : en:Chapter 03
00:14:28.826                             : en:Chapter 04
00:17:44.772                             : en:Chapter 05
00:21:53.854                             : en:Chapter 06
00:27:43.370                             : en:Chapter 07
00:33:00.186                             : en:Chapter 08
00:36:37.695                             : en:Chapter 09
00:44:28.374                             : en:Chapter 10
00:47:53.495                             : en:Chapter 11
00:53:49.726                             : en:Chapter 12
00:57:57.682                             : en:Chapter 13
01:01:54.127                             : en:Chapter 14
01:10:14.668                             : en:Chapter 15
01:15:24.728                             : en:Chapter 16
01:20:42.587                             : en:Chapter 17
01:27:58.982                             : en:Chapter 18
01:33:28.477                             : en:Chapter 19
01:35:27.763                             : en:Chapter 20
01:40:22.725                             : en:Chapter 21
01:43:21.028                             : en:Chapter 22
部分资源为软字幕,移动端推荐播放器:MxPlayer,nPlayer,infuse ,其他播放器请自行尝试。
部分资源为软字幕,电脑端推荐播放器:PotPlayer,完美解码,KMPLAYER,其他播放器请自行尝试。






~~~~~~~~~~~~~~~~~~~~~~~~~~~~~~~~~~~~~~~~~
[更 早][印度][剧情][BD-1080P]大河之歌[简繁英字幕].The.Unvanquished.1956.CC.1080p.BluRay.x264.FLAC.1.0- 9.73GB

【文件列表】:


The.Unvanquished.1956.CC.1080p.BluRay.x264.FLAC.1.0-SONYHD.



【下载地址列表】:


游客
文件下载链接就在这里,在您回复评论成功后才能显示。
请勿回复无意义的灌水内容。


下拉页面到最底部回复或者【点击此处快捷回复】,回复后返回此处即可查看下载链接。
如您没注册本站会员,可以点击注册本站,注册后即可回复下载。



软字幕无法在截图上展现,HDR版本/杜比视界版本截图会出现颜色异常,请使用支持的设备播放!






[img][/img]






[img][/img]

(HDR版本/杜比视界版本,截图会出现颜色异常,请使用支持的设备播放)

小贴士:【影视自媒体解说文案请移步:夏至文案解说网 www.xiazhi.vip

上一篇:[2018][欧美][剧情][WEB-4K]骡子[简繁英字幕].The.Mule.2018.2160p.UHD.BluRay.x265.10bit.HDR.DTS-HD.MA.5.1- 18.
下一篇:[更 早][印度][剧情][BD-1080P]大河之歌[简繁英字幕].The.Unvanquished.1956.CC.1080p.BluRay.x265.10bit.FLAC.1.0- 6.2
回复

使用道具 举报

您需要登录后才可以回帖 登录 | 立即注册

本版积分规则

Archiver|手机版|小众纪录片影视聚合

GMT+8, 2024-7-16 23:30 , Processed in 0.102423 second(s), 12 queries , Gzip On, Redis On.

Powered by 小众纪录片影视聚合 @2010-2023

Copyright © 2010-2024, https://www.xzjlp.com/.


免责说明:本站所有内容链接、图文介绍等均来自于互联网网友分享,本站仅支持web页面展示和文字介绍,绝不提供在线观看和存储服务,也不参与录制、上传、压片。若本站收录内容无意侵犯贵司版权,请发邮件到【a885185#163.com】联系本站,我们将在第一时间删除侵权内容。谢谢!

快速回复 返回顶部 返回列表