小众纪录片影视聚合

 找回密码
 立即注册
查看: 7|回复: 0

[蓝光电影] [更 早][其它][剧情][BD-1080P]隐藏摄像机[中文字幕].Hidden.2005.1080p.BluRay.x265.10bit.DTS- 7.88GB

[复制链接]

112万

主题

112万

帖子

112万

积分

超级版主

Rank: 8Rank: 8

积分
1128817
发表于 7 天前 | 显示全部楼层 |阅读模式


[更 早][其它][剧情][BD-1080P]隐藏摄像机[中文字幕].Hidden.2005.1080p.BluRay.x265.10bit.DTS- 7.88GB

完整标题:隐藏摄像机[中文字幕].Hidden.2005.1080p.BluRay.x265.10bit.DTS-SONYHD 7.88GB
◎标  题 隐藏摄像机
◎译  名 隐藏的恐惧(港) / 隐藏摄影机(台) / 躲避 / 偷拍 / 躲藏 / Hidden
◎片  名 Caché
◎年  代 2005
◎产  地 法国 / 奥地利 / 德国 / 意大利 / 美国
◎类  别 剧情 / 悬疑 / 惊悚
◎语  言 法语
◎上映日期 2005-05-14(戛纳电影节) / 2005-10-05(法国)
◎IMDb评分 7.3/10 (81785人评价)
◎IMDb链接 https://www.imdb.com/title/tt0387898/
◎豆瓣评分 7.6/10 (14795人评价)
◎豆瓣链接 https://movie.douban.com/subject/1438066/
◎片  长 117 分钟
◎导  演 迈克尔·哈内克 Michael Haneke
◎编  剧 迈克尔·哈内克 Michael Haneke
◎演  员 丹尼尔·奥特伊 Daniel Auteuil
       朱丽叶·比诺什 Juliette Binoche
       莫里斯·贝尼舒 Maurice Bénichou
       安妮·吉拉尔多 Annie Girardot
       贝尔纳·勒科克 Bernard Le Coq
       沃尔里德·阿非基尔 Walid Afkir
       莱斯特·马克登斯基 Lester Makedonsky
       丹尼尔·杜瓦尔 Daniel Duval
       娜塔莉·理查德 Nathalie Richard
       德尼·波达利德斯 Denis Podalydès
       爱伊莎·玛依卡 Aïssa Maïga
       克里斯蒂安·贝内代蒂 Christian Benedetti
       玛丽·克雷默 Marie Kremer
       路易多·德·朗克桑 Louis-Do de Lencquesaing
       弗朗索瓦·尼格雷特 François Négret
        Jean-Jacques Brochier
       Mazarine Pingeot Mazarine Pingeot
       Annette Faure Annette Faure
       玛丽-克里斯汀·奥里 Marie-Christine Orry
◎简  介
    知名电视节目主持人乔治(丹尼尔·奥特尤尔 Daniel Auteuil 饰)与妻子安娜(朱丽叶·比诺什 Juliette Binoche 饰)、儿子皮埃尔一家三口的平静生活被乔治从家门口捡来的录像带打破,这盒录像带显示有人静静地注视着乔治家的一举一动。很快,更多的录像带 和恐吓性质的明信片寄到了乔治及家人手上。乔治对看不见的敌人殊为紧张,开始小心保护儿子,并且为录像带的内容指引,回想起多年以前,差点成为母亲养子的阿尔及利亚遗孤马吉德。乔治怀疑录像带的始作俑者即为马吉德,于是登门拜访,却引发了意外的结局……                                    本片获2005年戛纳电影节最佳导演奖、费比西奖等二十余项专业褒奖。##### MediaInfo ######
General
Unique ID                                : 283173628983452280576929552901132970926 (0xD50941D4B6B3D95443F0D09A83F6EBAE)
Complete name                            : Hidden.2005.1080p.BluRay.x265.10bit.DTS-SONYHD.mkv
Duration                                 : 1 h 57 min
Overall bit rate                         : 9 566 kb/s
Video
ID                                       : 1
Format                                   : HEVC
Format/Info                              : High Efficiency Video Coding
Format profile                           : Main 10@L5@Main
Codec ID                                 : V_MPEGH/ISO/HEVC
Duration                                 : 1 h 57 min
Bit rate                                 : 8 002 kb/s
Width                                    : 1 904 pixels
Height                                   : 1 078 pixels
Display aspect ratio                     : 16:9
Frame rate mode                          : Constant
Frame rate                               : 23.976 (24000/1001) FPS
Color space                              : YUV
Chroma subsampling                       : 4:2:0
Bit depth                                : 10 bits
Bits/(Pixel*Frame)                       : 0.163
Stream size                              : 6.59 GiB (84%)
Writing library                          : x265 3.5g2b25c9ba0+45:[Windows][GCC 10.2.0][64 bit] Yuuki 10bit+8bit+12bit
Encoding settings                        : rc=crf / crf=21.5000 / qcomp=0.60 / qpstep=4 / stats-write=0 / stats-read=0 / no-lossless / no-cu-lossless / aq-mode=3 / aq-strength=0.90 / cbqpoffs=0 / crqpoffs=0 / ipratio=1.40 / pbratio=1.30 / psy-rd=2.00 / psy-rdoq=0.00 / deblock=0:0 / ref=6 / limit-refs=1 / no-limit-modes / bframes=8 / b-adapt=2 / bframe-bias=0 / b-pyramid / b-intra / weightp / weightb / min-keyint=24 / max-keyint=240 / rc-lookahead=24 / gop-lookahead=0 / scenecut=40 / hist-scenecut=0 / radl=0 / max-cu-size=64 / min-cu-size=8 / me=3 / subme=7 / merange=48 / rdoq-level=0 / rd=4 / rdpenalty=0 / dynamic-rd=0.00 / no-rd-refine / ----- / cutree / sao / no-rect / no-amp / no-open-gop / wpp / no-pmode / no-pme / no-psnr / no-ssim / nr-intra=0 / nr-inter=0 / no-constrained-intra / no-strong-intra-smoothing / max-tu-size=32 / tu-inter-depth=1 / tu-intra-depth=1 / limit-tu=0 / qg-size=32 / qpmax=69 / qpmin=0 / ----- / cpuid=1111039 / frame-threads=4 / numa-pools=+ / log-level=2 / input-csp=1 / input-res=1904x1078 / interlace=0 / level-idc=0 / high-tier=1 / uhd-bd=0 / no-allow-non-conformance / no-repeat-headers / aud / no-hrd / info / hash=0 / no-temporal-layers / lookahead-slices=0 / no-splice / no-intra-refresh / no-ssim-rd / signhide / no-tskip / max-merge=3 / temporal-mvp / no-frame-dup / no-hme / no-analyze-src-pics / no-sao-non-deblock / selective-sao=4 / early-skip / rskip / no-fast-intra / no-tskip-fast / no-splitrd-skip / zone-count=0 / no-strict-cbr / no-rc-grain / no-const-vbv / sar=0 / overscan=0 / videoformat=5 / range=0 / colorprim=2 / transfer=2 / colormatrix=2 / chromaloc=0 / display-window=0 / cll=0,0 / min-luma=0 / max-luma=1023 / log2-max-poc-lsb=8 / vui-timing-info / vui-hrd-info / slices=1 / no-opt-qp-pps / no-opt-ref-list-length-pps / no-multi-pass-opt-rps / scenecut-bias=0.05 / hist-threshold=0.03 / no-opt-cu-delta-qp / no-aq-motion / no-hdr10 / no-hdr10-opt / no-dhdr10-opt / no-idr-recovery-sei / analysis-reuse-level=0 / analysis-save-reuse-level=0 / analysis-load-reuse-level=0 / scale-factor=0 / refine-intra=0 / refine-inter=0 / refine-mv=1 / refine-ctu-distortion=0 / no-limit-sao / ctu-info=0 / no-lowpass-dct / refine-analysis-type=0 / copy-pic=1 / max-ausize-factor=1.0 / no-dynamic-refine / no-single-sei / no-hevc-aq / no-svt / no-field / qp-adaptation-range=1.00 / scenecut-aware-qp=0conformance-window-offsets / right=0 / bottom=0 / decoder-max-rate=0 / no-vbv-live-multi-pass
Default                                  : Yes
Forced                                   : No
Audio
ID                                       : 2
ID in the original source medium         : 4352 (0x1100)
Format                                   : DTS
Format/Info                              : Digital Theater Systems
Codec ID                                 : A_DTS
Duration                                 : 1 h 57 min
Bit rate mode                            : Constant
Bit rate                                 : 1 509 kb/s
Channel(s)                               : 6 channels
Channel layout                           : C L R Ls Rs LFE
Sampling rate                            : 48.0 kHz
Frame rate                               : 93.750 FPS (512 SPF)
Bit depth                                : 16 bits
Compression mode                         : Lossy
Stream size                              : 1.24 GiB (16%)
Title                                    : French
Language                                 : French
Default                                  : Yes
Forced                                   : No
Original source medium                   : Blu-ray
Text #1
ID                                       : 3
ID in the original source medium         : 4609 (0x1201)
Format                                   : PGS
Muxing mode                              : zlib
Codec ID                                 : S_HDMV/PGS
Codec ID/Info                            : Picture based subtitle format used on BDs/HD-DVDs
Duration                                 : 1 h 52 min
Bit rate                                 : 32.9 kb/s
Frame rate                               : 0.339 FPS
Count of elements                        : 2284
Stream size                              : 26.4 MiB (0%)
Title                                    : chs&fr
Language                                 : Chinese
Default                                  : Yes
Forced                                   : No
Original source medium                   : Blu-ray
Text #2
ID                                       : 4
ID in the original source medium         : 4610 (0x1202)
Format                                   : PGS
Muxing mode                              : zlib
Codec ID                                 : S_HDMV/PGS
Codec ID/Info                            : Picture based subtitle format used on BDs/HD-DVDs
Duration                                 : 1 h 52 min
Bit rate                                 : 33.0 kb/s
Frame rate                               : 0.339 FPS
Count of elements                        : 2284
Stream size                              : 26.5 MiB (0%)
Title                                    : cht&fr
Language                                 : Chinese
Default                                  : No
Forced                                   : No
Original source medium                   : Blu-ray
Text #3
ID                                       : 5
ID in the original source medium         : 4611 (0x1203)
Format                                   : PGS
Muxing mode                              : zlib
Codec ID                                 : S_HDMV/PGS
Codec ID/Info                            : Picture based subtitle format used on BDs/HD-DVDs
Duration                                 : 1 h 52 min
Bit rate                                 : 17.1 kb/s
Frame rate                               : 0.339 FPS
Count of elements                        : 2284
Stream size                              : 13.7 MiB (0%)
Title                                    : chs
Language                                 : Chinese
Default                                  : No
Forced                                   : No
Original source medium                   : Blu-ray
Text #4
ID                                       : 6
ID in the original source medium         : 4612 (0x1204)
Format                                   : PGS
Muxing mode                              : zlib
Codec ID                                 : S_HDMV/PGS
Codec ID/Info                            : Picture based subtitle format used on BDs/HD-DVDs
Duration                                 : 1 h 52 min
Bit rate                                 : 17.2 kb/s
Frame rate                               : 0.339 FPS
Count of elements                        : 2284
Stream size                              : 13.8 MiB (0%)
Title                                    : cht
Language                                 : Chinese
Default                                  : No
Forced                                   : No
Original source medium                   : Blu-ray
Text #5
ID                                       : 7
ID in the original source medium         : 4608 (0x1200)
Format                                   : PGS
Muxing mode                              : zlib
Codec ID                                 : S_HDMV/PGS
Codec ID/Info                            : Picture based subtitle format used on BDs/HD-DVDs
Duration                                 : 1 h 57 min
Bit rate                                 : 27.2 kb/s
Frame rate                               : 0.348 FPS
Count of elements                        : 2457
Stream size                              : 22.9 MiB (0%)
Title                                    : fr
Language                                 : French
Default                                  : No
Forced                                   : No
Original source medium                   : Blu-ray
Menu
00:00:00.000                             : en:Chapter 01
00:12:48.350                             : en:Chapter 02
00:30:17.482                             : en:Chapter 03
00:45:55.085                             : en:Chapter 04
01:10:06.160                             : en:Chapter 05
01:26:30.185                             : en:Chapter 06
01:40:24.184                             : en:Chapter 07
部分资源为软字幕,移动端推荐播放器:MxPlayer,nPlayer,infuse ,其他播放器请自行尝试。
部分资源为软字幕,电脑端推荐播放器:PotPlayer,完美解码,KMPLAYER,其他播放器请自行尝试。






~~~~~~~~~~~~~~~~~~~~~~~~~~~~~~~~~~~~~~~~~
[更 早][其它][剧情][BD-1080P]隐藏摄像机[中文字幕].Hidden.2005.1080p.BluRay.x265.10bit.DTS- 7.88GB

【文件列表】:


Hidden.2005.1080p.BluRay.x265.10bit.DTS-SONYHD.



【下载地址列表】:


游客
文件下载链接就在这里,在您回复评论成功后才能显示。
请勿回复无意义的灌水内容。


下拉页面到最底部回复或者【点击此处快捷回复】,回复后返回此处即可查看下载链接。
如您没注册本站会员,可以点击注册本站,注册后即可回复下载。



软字幕无法在截图上展现,HDR版本/杜比视界版本截图会出现颜色异常,请使用支持的设备播放!






[img][/img]






[img][/img]

(HDR版本/杜比视界版本,截图会出现颜色异常,请使用支持的设备播放)

小贴士:【影视自媒体解说文案请移步:夏至文案解说网 www.xiazhi.vip

上一篇:[更 早][其它][剧情][BD-1080P]隐藏摄像机[中文字幕].Hidden.2005.1080p.BluRay.x264.DTS- 12.15GB
下一篇:[2006][欧美][动作][WEB-4K]加勒比海盗2:亡灵的宝藏[国英多音轨/简繁英字幕].2006.2160p.UHD.BluRay.x265.10bit.HDR.TrueHD.Atmos.7.1.
回复

使用道具 举报

您需要登录后才可以回帖 登录 | 立即注册

本版积分规则

Archiver|手机版|小众纪录片影视聚合

GMT+8, 2024-7-16 23:47 , Processed in 0.113762 second(s), 12 queries , Gzip On, Redis On.

Powered by 小众纪录片影视聚合 @2010-2023

Copyright © 2010-2024, https://www.xzjlp.com/.


免责说明:本站所有内容链接、图文介绍等均来自于互联网网友分享,本站仅支持web页面展示和文字介绍,绝不提供在线观看和存储服务,也不参与录制、上传、压片。若本站收录内容无意侵犯贵司版权,请发邮件到【a885185#163.com】联系本站,我们将在第一时间删除侵权内容。谢谢!

快速回复 返回顶部 返回列表