小众纪录片影视聚合

 找回密码
 立即注册
查看: 12|回复: 0

[蓝光电影] [2006][欧美][动作][WEB-4K]加勒比海盗2:亡灵的宝藏[国英多音轨/简繁英字幕].2006.2160p.UHD.BluRay.x265.10bit.HDR.TrueHD.Atmos.7.1.

[复制链接]

116万

主题

116万

帖子

116万

积分

超级版主

Rank: 8Rank: 8

积分
1167997
发表于 2024-7-9 21:12:13 | 显示全部楼层 |阅读模式


[2006][欧美][动作][WEB-4K]加勒比海盗2:亡灵的宝藏[国英多音轨/简繁英字幕].2006.2160p.UHD.BluRay.x265.10bit.HDR.TrueHD.Atmos.7.1.

完整标题:加勒比海盗2:亡灵的宝藏[国英多音轨/简繁英字幕].2006.2160p.UHD.BluRay.x265.10bit.HDR.TrueHD.Atmos.7.1.2Audio-SONYHD 32.90GB
◎标  题 加勒比海盗2:亡灵的宝藏
◎译  名 加勒比海盜:决战魔盜王(港) / 加勒比海盗:神鬼奇航2(台) / 加勒比海盗2:聚魂棺 / 加勒比海盗2:亡灵宝藏 / Pirates 2
◎片  名 Pirates of the Caribbean: Dead Man's Chest
◎年  代 2006
◎产  地 美国
◎类  别 动作 / 奇幻 / 冒险
◎语  言 英语 / 土耳其语 / 希腊语
◎上映日期 2006-07-07(美国)
◎IMDb评分 7.4/10 (754599人评价)
◎IMDb链接 https://www.imdb.com/title/tt0383574/
◎豆瓣评分 8.4/10 (428759人评价)
◎豆瓣链接 https://movie.douban.com/subject/1315574/
◎片  长 151分钟
◎导  演 戈尔·维宾斯基 Gore Verbinski
◎编  剧 泰德·艾略特 Ted Elliott
       特里·鲁西奥 Terry Rossio
       斯图尔特·贝亚蒂耶 Stuart Beattie
       杰·沃尔伯特 Jay Wolpert
◎演  员 约翰尼·德普 Johnny Depp
       奥兰多·布鲁姆 Orlando Bloom
       凯拉·奈特莉 Keira Knightley
       杰克·达文波特 Jack Davenport
       比尔·奈伊 Bill Nighy
       乔纳森·普雷斯 Jonathan Pryce
       李·阿伦伯格 Lee Arenberg
       麦肯锡·克鲁克 Mackenzie Crook
       凯文·麦克纳利 Kevin McNally
       大卫·拜利 David Bailie
       斯特兰·斯卡斯加德 Stellan Skarsgård
       汤姆·霍兰德尔 Tom Hollander
       娜奥米·哈里斯 Naomie Harris
       马丁·科勒巴 Martin Klebba
       大卫·斯科菲尔德 David Schofield
       亚力克斯·诺顿 Alex Norton
       劳伦·马赫 Lauren Maher
       内杰·亚当森 Nej Adamson
       卢克·德·沃夫松 Luke de Woolfson
       德里克·奥康纳 Derrick O'Connor
       德莫特·基尼 Dermot Keaney
       克里夫·阿什伯恩 Clive Ashborn
       罗比·基 Robbie Gee
       麦克斯·贝克 Max Baker
       史蒂夫·斯皮尔斯 Steve Speirs
       约翰·博斯沃尔 John Boswall
       克里斯托弗·亚当森 Christopher Adamson
       安迪·比克维奇 Andy Beckwith
       乔纳森·林斯利 Jonathan Linsley
       西蒙·米考克 Simon Meacock
       瓦妮莎·布兰奇 Vanessa Branch
       大卫·斯特恩 David Sterne
       安东尼·帕特里西奥 Anthony Patricio
       迈克尔·恩莱特 Michael Enright
       马克·可汗 Marco Khan
       大卫·扎赫迪安 David Zahedian
       法乌齐·卜拉希米 Faouzi Brahimi
       雷吉·李 Reggie Lee
       杰拉德·J·雷耶斯 Gerard J. Reyes
       哈亚提·阿克巴斯 Hayati Akbas
       斯蒂芬·阿纳尼茨 Stephen Ananicz
       拉斯蒂·格瑞斯登·博林 Rusty 'Gravestone' Bolin
       罗恩·博蒂塔 Ron Bottitta
       盖伊·查普曼 Guy Chapman
       尼尔·德蒙特 Neil D'Monte
       杰拉德·加纳 Jerald Garner
       赛米·汉拉缇 Sammi Hanratty
       达隆·亨廷顿 Dalon Huntington
       保罗·雅各布森 Paul Jacobson
       马克·约瑟夫 Marc Joseph
       乔纳森·克特 Jonathan Kite
       杰弗里·拉什 Geoffrey Rush
       卡莉·罗森博格 Karly Rothenberg
       加里·西弗斯 Gary Sievers
       谢鹤群 Ho-Kwan Tse
       金永钢 Yonggang Jin
       陆建艺 Jianyi Lu
       约瑟夫·史蒂文 Joseph Steven
       亚历山大苏恩佐夫 Aleksandr Sountsov
       尼古拉斯·里德 Nicolas Read
       詹姆斯·S·莱文 James S. Levine
       尼基·泰勒·梅尔顿 Nikki Taylor Melton
       玛姬·蒙罗 Maggie Munro
       安·马修斯 Ann Matthews
       迈克尔·A·莱文 Michael A. Levine
       艾琳·沙基 Erin Sharkey
       迈克尔·博诺莫 Michael Buonomo
       马克·约瑟夫 Marc Joseph
◎简  介
    迷人的杰克(约翰尼•戴普 饰)船长又回来了,这次,他遇到了更为强大的敌人——传说中的不死人大卫•琼斯(比尔•奈伊 饰),他驾驶着让人恐惧的“飞行荷兰人”号快船,在速度与装备上,没有任何船能够超越它。杰克船长欠下琼斯一个血债,他必须赶在最后时限到来之前,找到破解的方法,否则他会永远背负血债,并且在余生永远成为琼斯的奴隶。                                    当然,杰克船长的好朋友威尔•特纳(奥兰多•布鲁姆 饰)也被卷入了他的坏运气当中。因为杰克,威尔和伊丽莎白(凯拉•奈特莉 饰)的婚礼被迫取消,伊丽莎白还被关进了监狱,威尔为了救她,只能去寻找杰克。                                    这次两个好朋友遇到了巨大神秘的海洋怪物、不友善的小岛土著、打扮华丽的占卜者戴尔玛,威尔失散多年的父亲--“拉靴带”比尔•特纳(斯特兰•斯卡斯加德)在关键时刻离奇现身,成为全局的转折点……##### MediaInfo ######
General
Unique ID                                : 122152406005043155446110321019361536110 (0x5BE5B299378DBBC56D3A8E597065A86E)
Complete name                            : Pirates.of.the.Caribbean.Dead.Man's.Chest.2006.2160p.UHD.BluRay.x265.10bit.HDR.TrueHD.Atmos.7.1.2Audio-SONYHD.mkv
Duration                                 : 2 h 30 min
Overall bit rate mode                    : Variable
Overall bit rate                         : 31.3 Mb/s
Video
ID                                       : 1
Format                                   : HEVC
Format/Info                              : High Efficiency Video Coding
Format profile                           : Main [email protected]@High
HDR format                               : SMPTE ST 2086, HDR10 compatible
Codec ID                                 : V_MPEGH/ISO/HEVC
Duration                                 : 2 h 30 min
Bit rate                                 : 22.1 Mb/s
Width                                    : 3 840 pixels
Height                                   : 1 600 pixels
Display aspect ratio                     : 2.40:1
Frame rate mode                          : Constant
Frame rate                               : 23.976 (24000/1001) FPS
Color space                              : YUV
Chroma subsampling                       : 4:2:0
Bit depth                                : 10 bits
Bits/(Pixel*Frame)                       : 0.150
Stream size                              : 23.2 GiB (71%)
Writing library                          : x265 3.5g2b25c9ba0+45:[Windows][MSVC 1926][64 bit] Yuuki 10bit+8bit+12bit
Encoding settings                        : rc=crf / crf=19.0000 / qcomp=0.70 / qpstep=4 / stats-write=0 / stats-read=0 / vbv-maxrate=160000 / vbv-bufsize=160000 / vbv-init=0.9 / min-vbv-fullness=50.0 / max-vbv-fullness=80.0 / crf-max=0.0 / crf-min=0.0 / no-lossless / no-cu-lossless / aq-mode=3 / aq-strength=0.80 / cbqpoffs=0 / crqpoffs=0 / ipratio=1.40 / pbratio=1.30 / psy-rd=2.00 / psy-rdoq=2.00 / deblock=-3:-3 / ref=6 / limit-refs=1 / no-limit-modes / bframes=11 / b-adapt=2 / bframe-bias=0 / b-pyramid / b-intra / weightp / weightb / min-keyint=1 / max-keyint=240 / rc-lookahead=72 / gop-lookahead=0 / scenecut=40 / hist-scenecut=0 / radl=0 / max-cu-size=64 / min-cu-size=8 / me=3 / subme=7 / merange=48 / rdoq-level=2 / rd=4 / rdpenalty=0 / dynamic-rd=0.00 / no-rd-refine / ----- / no-cutree / no-sao / no-rect / no-amp / no-open-gop / wpp / no-pmode / no-pme / no-psnr / no-ssim / nr-intra=0 / nr-inter=0 / no-constrained-intra / no-strong-intra-smoothing / max-tu-size=32 / tu-inter-depth=4 / tu-intra-depth=4 / limit-tu=0 / qg-size=32 / qpmax=69 / qpmin=0 / ----- / cpuid=1049583 / frame-threads=5 / numa-pools=+ / log-level=2 / input-csp=1 / input-res=3840x1600 / interlace=0 / level-idc=51 / high-tier=1 / uhd-bd=0 / no-allow-non-conformance / repeat-headers / aud / no-hrd / info / hash=0 / no-temporal-layers / lookahead-slices=0 / no-splice / no-intra-refresh / no-ssim-rd / signhide / no-tskip / max-merge=5 / temporal-mvp / no-frame-dup / no-hme / analyze-src-pics / no-sao-non-deblock / selective-sao=0 / early-skip / rskip / no-fast-intra / no-tskip-fast / no-splitrd-skip / zone-count=0 / no-strict-cbr / no-rc-grain / no-const-vbv / sar=0 / overscan=0 / videoformat=5 / range=0 / colorprim=9 / transfer=16 / colormatrix=9 / chromaloc=0 / display-window=0 / master-display=G(13250,34500)B(7500,3000)R(34000,16000)WP(15635,16450)L(4000000,50) / cll=0,0 / min-luma=0 / max-luma=1023 / log2-max-poc-lsb=8 / vui-timing-info / vui-hrd-info / slices=1 / no-opt-qp-pps / no-opt-ref-list-length-pps / no-multi-pass-opt-rps / scenecut-bias=0.05 / hist-threshold=0.03 / no-opt-cu-delta-qp / no-aq-motion / hdr10 / hdr10-opt / no-dhdr10-opt / no-idr-recovery-sei / analysis-reuse-level=0 / analysis-save-reuse-level=0 / analysis-load-reuse-level=0 / scale-factor=0 / refine-intra=0 / refine-inter=0 / refine-mv=1 / refine-ctu-distortion=0 / no-limit-sao / ctu-info=0 / no-lowpass-dct / refine-analysis-type=0 / copy-pic=1 / max-ausize-factor=1.0 / no-dynamic-refine / no-single-sei / no-hevc-aq / no-svt / no-field / qp-adaptation-range=1.00 / scenecut-aware-qp=0conformance-window-offsets / right=0 / bottom=0 / decoder-max-rate=0 / no-vbv-live-multi-pass
Default                                  : Yes
Forced                                   : No
Color range                              : Limited
Color primaries                          : BT.2020
Transfer characteristics                 : PQ
Matrix coefficients                      : BT.2020 non-constant
Mastering display color primaries        : Display P3
Mastering display luminance              : min: 0.0050 cd/m2, max: 400 cd/m2
Audio #1
ID                                       : 2
ID in the original source medium         : 4352 (0x1100)
Format                                   : MLP FBA 16-ch
Format/Info                              : Meridian Lossless Packing FBA with 16-channel presentation
Commercial name                          : Dolby TrueHD with Dolby Atmos
Codec ID                                 : A_TRUEHD
Duration                                 : 2 h 30 min
Bit rate mode                            : Variable
Bit rate                                 : 4 178 kb/s
Maximum bit rate                         : 6 009 kb/s
Channel(s)                               : 8 channels
Channel layout                           : L R C LFE Ls Rs Lb Rb
Sampling rate                            : 48.0 kHz
Frame rate                               : 1 200.000 FPS (40 SPF)
Compression mode                         : Lossless
Stream size                              : 4.40 GiB (13%)
Language                                 : English
Default                                  : Yes
Forced                                   : No
Original source medium                   : Blu-ray
Number of dynamic objects                : 13
Bed channel count                        : 1 channel
Bed channel configuration                : LFE
Audio #2
ID                                       : 3
ID in the original source medium         : 4354 (0x1102)
Format                                   : DTS XLL
Format/Info                              : Digital Theater Systems
Commercial name                          : DTS-HD Master Audio
Codec ID                                 : A_DTS
Duration                                 : 2 h 30 min
Bit rate mode                            : Variable
Bit rate                                 : 4 827 kb/s
Channel(s)                               : 8 channels
Channel layout                           : C L R LFE Lb Rb Lss Rss
Sampling rate                            : 48.0 kHz
Frame rate                               : 93.750 FPS (512 SPF)
Bit depth                                : 24 bits
Compression mode                         : Lossless
Delay relative to video                  : 21 ms
Stream size                              : 5.08 GiB (15%)
Title                                    : Mandarin
Language                                 : Chinese
Default                                  : No
Forced                                   : No
Original source medium                   : Blu-ray
Text #1
ID                                       : 4
ID in the original source medium         : 4769 (0x12A1)
Format                                   : PGS
Muxing mode                              : zlib
Codec ID                                 : S_HDMV/PGS
Codec ID/Info                            : Picture based subtitle format used on BDs/HD-DVDs
Duration                                 : 2 h 30 min
Bit rate                                 : 46.8 kb/s
Frame rate                               : 0.443 FPS
Count of elements                        : 3989
Stream size                              : 50.3 MiB (0%)
Title                                    : chs&eng
Language                                 : Chinese
Default                                  : Yes
Forced                                   : No
Original source medium                   : Blu-ray
Text #2
ID                                       : 5
ID in the original source medium         : 4770 (0x12A2)
Format                                   : PGS
Muxing mode                              : zlib
Codec ID                                 : S_HDMV/PGS
Codec ID/Info                            : Picture based subtitle format used on BDs/HD-DVDs
Duration                                 : 2 h 30 min
Bit rate                                 : 47.5 kb/s
Frame rate                               : 0.443 FPS
Count of elements                        : 3989
Stream size                              : 51.0 MiB (0%)
Title                                    : cht&eng
Language                                 : Chinese
Default                                  : No
Forced                                   : No
Original source medium                   : Blu-ray
Text #3
ID                                       : 6
ID in the original source medium         : 4771 (0x12A3)
Format                                   : PGS
Muxing mode                              : zlib
Codec ID                                 : S_HDMV/PGS
Codec ID/Info                            : Picture based subtitle format used on BDs/HD-DVDs
Duration                                 : 2 h 30 min
Bit rate                                 : 34.5 kb/s
Frame rate                               : 0.470 FPS
Count of elements                        : 4238
Stream size                              : 37.1 MiB (0%)
Title                                    : chs
Language                                 : Chinese
Default                                  : No
Forced                                   : No
Original source medium                   : Blu-ray
Text #4
ID                                       : 7
ID in the original source medium         : 4772 (0x12A4)
Format                                   : PGS
Muxing mode                              : zlib
Codec ID                                 : S_HDMV/PGS
Codec ID/Info                            : Picture based subtitle format used on BDs/HD-DVDs
Duration                                 : 2 h 30 min
Bit rate                                 : 35.1 kb/s
Frame rate                               : 0.470 FPS
Count of elements                        : 4238
Stream size                              : 37.7 MiB (0%)
Title                                    : cht
Language                                 : Chinese
Default                                  : No
Forced                                   : No
Original source medium                   : Blu-ray
Text #5
ID                                       : 8
ID in the original source medium         : 4768 (0x12A0)
Format                                   : PGS
Muxing mode                              : zlib
Codec ID                                 : S_HDMV/PGS
Codec ID/Info                            : Picture based subtitle format used on BDs/HD-DVDs
Duration                                 : 2 h 27 min
Bit rate                                 : 28.8 kb/s
Frame rate                               : 0.359 FPS
Count of elements                        : 3182
Stream size                              : 30.5 MiB (0%)
Language                                 : English
Default                                  : Yes
Forced                                   : No
Original source medium                   : Blu-ray
Menu
00:00:00.000                             : en:第 01 章
00:04:18.925                             : en:第 02 章
00:09:53.009                             : en:第 03 章
00:12:13.441                             : en:第 04 章
00:19:09.064                             : en:第 05 章
00:23:53.471                             : en:第 06 章
00:30:15.480                             : en:第 07 章
00:35:29.418                             : en:第 08 章
00:40:32.929                             : en:第 09 章
00:46:28.034                             : en:第 10 章
00:50:25.563                             : en:第 11 章
00:56:18.625                             : en:第 12 章
00:59:52.380                             : en:第 13 章
01:05:45.190                             : en:第 14 章
01:11:55.853                             : en:第 15 章
01:17:04.328                             : en:第 16 章
01:22:10.256                             : en:第 17 章
01:30:36.639                             : en:第 18 章
01:34:38.171                             : en:第 19 章
01:39:21.828                             : en:第 20 章
01:44:52.411                             : en:第 21 章
01:49:14.712                             : en:第 22 章
01:54:55.805                             : en:第 23 章
01:59:36.042                             : en:第 24 章
02:04:59.908                             : en:第 25 章
02:10:27.194                             : en:第 26 章
02:16:20.630                             : en:第 27 章
02:21:04.870                             : en:第 28 章
部分资源为软字幕,移动端推荐播放器:MxPlayer,nPlayer,infuse ,其他播放器请自行尝试。
部分资源为软字幕,电脑端推荐播放器:PotPlayer,完美解码,KMPLAYER,其他播放器请自行尝试。






~~~~~~~~~~~~~~~~~~~~~~~~~~~~~~~~~~~~~~~~~
[2006][欧美][动作][WEB-4K]加勒比海盗2:亡灵的宝藏[国英多音轨/简繁英字幕].2006.2160p.UHD.BluRay.x265.10bit.HDR.TrueHD.Atmos.7.1.

【文件列表】:


2006.2160p.UHD.BluRay.x265.10bit.HDR.TrueHD.Atmos.7.1.2Audio-SONYHD.



【下载地址列表】:


游客
文件下载链接就在这里,在您回复评论成功后才能显示。
请勿回复无意义的灌水内容。


下拉页面到最底部回复或者【点击此处快捷回复】,回复后返回此处即可查看下载链接。
如您没注册本站会员,可以点击注册本站,注册后即可回复下载。



软字幕无法在截图上展现,HDR版本/杜比视界版本截图会出现颜色异常,请使用支持的设备播放!






[img][/img]






[img][/img]

(HDR版本/杜比视界版本,截图会出现颜色异常,请使用支持的设备播放)

小贴士:【影视自媒体解说文案请移步:夏至文案解说网 www.xiazhi.vip

上一篇:[更 早][其它][剧情][BD-1080P]隐藏摄像机[中文字幕].Hidden.2005.1080p.BluRay.x265.10bit.DTS- 7.88GB
下一篇:[更 早][欧美][喜剧][WEB-4K]妙探寻凶[HDR/杜比视界双版本][中文字幕].Clue.1985.2160p.UHD.BluRay.x265.10bit.HDR.DTS-HD.MA2.0-N
回复

使用道具 举报

您需要登录后才可以回帖 登录 | 立即注册

本版积分规则

Archiver|手机版|小众纪录片影视聚合

GMT+8, 2024-7-24 22:16 , Processed in 0.127581 second(s), 12 queries , Gzip On, Redis On.

Powered by 小众纪录片影视聚合 @2010-2023

Copyright © 2010-2024, https://www.xzjlp.com/.


免责说明:本站所有内容链接、图文介绍等均来自于互联网网友分享,本站仅支持web页面展示和文字介绍,绝不提供在线观看和存储服务,也不参与录制、上传、压片。若本站收录内容无意侵犯贵司版权,请发邮件到【a885185#163.com】联系本站,我们将在第一时间删除侵权内容。谢谢!

快速回复 返回顶部 返回列表