小众纪录片影视聚合

 找回密码
 立即注册
查看: 13|回复: 0

[蓝光电影] [更 早][其它][剧情][WEB-1080P]四个婚礼和一个葬礼[无字片源].Four.Weddings.and.a.Funeral.1994.1080p.AMZN.WEB-DL.DDP.5.1.H.264

[复制链接]

112万

主题

112万

帖子

112万

积分

超级版主

Rank: 8Rank: 8

积分
1128817
发表于 7 天前 | 显示全部楼层 |阅读模式


[更 早][其它][剧情][WEB-1080P]四个婚礼和一个葬礼[无字片源].Four.Weddings.and.a.Funeral.1994.1080p.AMZN.WEB-DL.DDP.5.1.H.264

完整标题:四个婚礼和一个葬礼[无字片源].Four.Weddings.and.a.Funeral.1994.1080p.AMZN.WEB-DL.DDP.5.1.H.264-DreamHD 11.40GB
◎标  题 四个婚礼和一个葬礼
◎译  名 你是我今生的新娘
◎片  名 Four Weddings and a Funeral
◎年  代 1994
◎产  地 英国
◎类  别 剧情 / 喜剧 / 爱情
◎语  言 英语 / 英国手语
◎上映日期 1994-01-20(圣丹斯电影节) / 1994-04-15(美国) / 1994-05-13(英国)
◎IMDb评分 7.1/10 (157019人评价)
◎IMDb链接 https://www.imdb.com/title/tt0109831/
◎豆瓣评分 7.4/10 (114328人评价)
◎豆瓣链接 https://movie.douban.com/subject/1294950/
◎片  长 117分钟
◎导  演 迈克·内威尔 Mike Newell
◎编  剧 理查德·柯蒂斯 Richard Curtis
◎演  员 休·格兰特 Hugh Grant
       安迪·麦克道威尔 Andie MacDowell
       詹姆斯·弗雷特 James Fleet
       西蒙·卡洛 Simon Callow
       约翰·汉纳 John Hannah
       克里斯汀·斯科特·托马斯 Kristin Scott Thomas
       大卫·鲍尔 David Bower
       夏洛特·科曼 Charlotte Coleman
       蒂莫西·沃克 Timothy Walker
       萨拉·克罗 Sara Crowe
       罗纳德·赫德曼 Ronald Herdman
       罗温·艾金森 Rowan Atkinson
       罗宾·麦卡弗里 Robin McCaffrey
       大卫·海格 David Haig
       苏菲·汤普森 Sophie Thompson
       科林·雷德格瑞夫 Corin Redgrave
       安娜·钱斯勒 Anna Chancellor
       肯·德鲁里 Ken Drury
       斯特鲁恩·罗杰 Struan Rodger
       内维尔·菲利普斯 Neville Phillips
       理查德·巴特勒 Richard Butler
       妮可拉·沃克 Nicola Walker
       汉娜·泰勒-高登 Hannah Taylor-Gordon
       伯娜丝·斯戴杰斯 Bernice Stegers
       西蒙·坤茨 Simon Kunz
       Susanna Hamnett Susanna Hamnett
       Tim Thomas Tim Thomas
       邓肯·肯沃西 Duncan Kenworthy
       埃米莉·摩根 Emily Morgan
       鲁珀特·范西塔特 Rupert Vansittart
◎简  介
    查尔斯(休•格兰特)虽是婚礼上的常客,却对结婚怀有莫名疑惧。某个乡村婚礼上,他对美国姑娘凯瑞(安迪•麦克道威尔)一见倾心,不顾朋友大嚼有关她的诸多是非,与她共度了美好的一夜,次日,凯莉不支一声回了美国,查尔斯被搞得心神不宁。两月过去,伦敦某个婚礼上,两人又遇,但凯瑞正准备结婚,不过在她的主动下,两人再次共度良宵。                                    又一月,查尔斯收到凯瑞的结婚请柬,挑礼物时,他再与凯莉相遇,对方向他讲起自己的风流韵史,搞得查尔斯很想开口同她求婚。垂头丧气地参加完凯瑞的婚礼后,查尔斯接受了他并不爱的女孩的表白,而直到某次葬礼的来临,“爱你在心口难开”的他才决定鼓足勇气向又一次遇见的凯瑞表白爱意。
点击图片可查看大图
软字幕无法在截图上展现,HDR版本/杜比视界版本截图会出现颜色异常,请使用支持的设备播放!
##### MediaInfo ######
General
Unique ID                                : 229875954629169868999801369059699600081 (0xACF07F9A8458BAE088EFA0D8D81E2AD1)
Complete name                            : Four.Weddings.and.a.Funeral.1994.1080p.AMZN.WEB-DL.DDP.5.1.H.264-DreamHD.mkv
Duration                                 : 1 h 57 min
Overall bit rate                         : 13.8 Mb/s
Video
ID                                       : 1
Format                                   : AVC
Format/Info                              : Advanced Video Codec
Format profile                           : High@L4
Format settings                          : CABAC / 4 Ref Frames
Format settings, CABAC                   : Yes
Format settings, Reference frames        : 4 frames
Codec ID                                 : V_MPEG4/ISO/AVC
Duration                                 : 1 h 57 min
Bit rate                                 : 13.2 Mb/s
Width                                    : 1 920 pixels
Height                                   : 1 040 pixels
Display aspect ratio                     : 1.85:1
Frame rate mode                          : Constant
Frame rate                               : 23.976 (24000/1001) FPS
Color space                              : YUV
Chroma subsampling                       : 4:2:0
Bit depth                                : 8 bits
Scan type                                : Progressive
Bits/(Pixel*Frame)                       : 0.276
Stream size                              : 10.9 GiB (95%)
Language                                 : English
Default                                  : Yes
Forced                                   : No
Color range                              : Limited
Color primaries                          : BT.709
Transfer characteristics                 : BT.709
Matrix coefficients                      : BT.709
Audio
ID                                       : 2
Format                                   : E-AC-3
Format/Info                              : Enhanced AC-3
Commercial name                          : Dolby Digital Plus
Codec ID                                 : A_EAC3
Duration                                 : 1 h 57 min
Bit rate mode                            : Constant
Bit rate                                 : 640 kb/s
Channel(s)                               : 6 channels
Channel layout                           : L R C LFE Ls Rs
Sampling rate                            : 48.0 kHz
Frame rate                               : 31.250 FPS (1536 SPF)
Compression mode                         : Lossy
Stream size                              : 540 MiB (5%)
Language                                 : English
Service kind                             : Complete Main
Default                                  : Yes
Forced                                   : No
Text #1
ID                                       : 3
Format                                   : UTF-8
Codec ID                                 : S_TEXT/UTF8
Codec ID/Info                            : UTF-8 Plain Text
Duration                                 : 1 h 54 min
Bit rate                                 : 1 b/s
Frame rate                               : 0.008 FPS
Count of elements                        : 54
Stream size                              : 1.33 KiB (0%)
Title                                    : Forced
Language                                 : English
Default                                  : Yes
Forced                                   : Yes
Text #2
ID                                       : 4
Format                                   : UTF-8
Codec ID                                 : S_TEXT/UTF8
Codec ID/Info                            : UTF-8 Plain Text
Duration                                 : 1 h 56 min
Bit rate                                 : 64 b/s
Frame rate                               : 0.267 FPS
Count of elements                        : 1868
Stream size                              : 55.4 KiB (0%)
Title                                    : SDH
Language                                 : English
Default                                  : No
Forced                                   : No
Text #3
ID                                       : 5
Format                                   : UTF-8
Codec ID                                 : S_TEXT/UTF8
Codec ID/Info                            : UTF-8 Plain Text
Duration                                 : 1 h 55 min
Bit rate                                 : 57 b/s
Frame rate                               : 0.217 FPS
Count of elements                        : 1499
Stream size                              : 48.2 KiB (0%)
Language                                 : German
Default                                  : No
Forced                                   : No
Text #4
ID                                       : 6
Format                                   : UTF-8
Codec ID                                 : S_TEXT/UTF8
Codec ID/Info                            : UTF-8 Plain Text
Duration                                 : 1 h 54 min
Bit rate                                 : 57 b/s
Frame rate                               : 0.234 FPS
Count of elements                        : 1606
Stream size                              : 48.2 KiB (0%)
Title                                    : Latin America
Language                                 : Spanish
Default                                  : No
Forced                                   : No
Text #5
ID                                       : 7
Format                                   : UTF-8
Codec ID                                 : S_TEXT/UTF8
Codec ID/Info                            : UTF-8 Plain Text
Duration                                 : 1 h 51 min
Bit rate                                 : 54 b/s
Frame rate                               : 0.183 FPS
Count of elements                        : 1226
Stream size                              : 44.6 KiB (0%)
Language                                 : Spanish
Default                                  : No
Forced                                   : No
Text #6
ID                                       : 8
Format                                   : UTF-8
Codec ID                                 : S_TEXT/UTF8
Codec ID/Info                            : UTF-8 Plain Text
Duration                                 : 1 h 54 min
Bit rate                                 : 44 b/s
Frame rate                               : 0.196 FPS
Count of elements                        : 1340
Stream size                              : 36.9 KiB (0%)
Title                                    : Japan
Language                                 : Japanese
Default                                  : No
Forced                                   : No
Text #7
ID                                       : 9
Format                                   : UTF-8
Codec ID                                 : S_TEXT/UTF8
Codec ID/Info                            : UTF-8 Plain Text
Duration                                 : 1 h 55 min
Bit rate                                 : 48 b/s
Frame rate                               : 0.162 FPS
Count of elements                        : 1124
Stream size                              : 41.3 KiB (0%)
Language                                 : Dutch
Default                                  : No
Forced                                   : No
Text #8
ID                                       : 10
Format                                   : UTF-8
Codec ID                                 : S_TEXT/UTF8
Codec ID/Info                            : UTF-8 Plain Text
Duration                                 : 1 h 51 min
Bit rate                                 : 57 b/s
Frame rate                               : 0.184 FPS
Count of elements                        : 1232
Stream size                              : 46.8 KiB (0%)
Language                                 : Polish
Default                                  : No
Forced                                   : No
Text #9
ID                                       : 11
Format                                   : UTF-8
Codec ID                                 : S_TEXT/UTF8
Codec ID/Info                            : UTF-8 Plain Text
Duration                                 : 1 h 54 min
Bit rate                                 : 55 b/s
Frame rate                               : 0.234 FPS
Count of elements                        : 1606
Stream size                              : 46.8 KiB (0%)
Title                                    : Brazil
Language                                 : Portuguese
Default                                  : No
Forced                                   : No
Text #10
ID                                       : 12
Format                                   : UTF-8
Codec ID                                 : S_TEXT/UTF8
Codec ID/Info                            : UTF-8 Plain Text
Duration                                 : 1 h 55 min
Bit rate                                 : 49 b/s
Frame rate                               : 0.176 FPS
Count of elements                        : 1225
Stream size                              : 42.2 KiB (0%)
Title                                    : SDH
Language                                 : Portuguese
Default                                  : No
Forced                                   : No
Text #11
ID                                       : 13
Format                                   : UTF-8
Codec ID                                 : S_TEXT/UTF8
Codec ID/Info                            : UTF-8 Plain Text
Duration                                 : 1 h 51 min
Bit rate                                 : 55 b/s
Frame rate                               : 0.183 FPS
Count of elements                        : 1224
Stream size                              : 45.6 KiB (0%)
Title                                    : Sweden
Language                                 : Swedish
Default                                  : No
Forced                                   : No
Menu
00:00:00.000                             : en:Studio Logo
00:00:11.000                             : en:Tom & Fiona pick up their friends, Tom's car
00:03:26.000                             : en:Charles suggest taking Scarlett's car, Charles house
00:05:05.000                             : en:Angus asks Charles about the wedding ring, chruch
00:08:16.000                             : en:Angus & Laura exchange vows, church
00:10:41.000                             : en:Charles & friends goes for the reception, church
00:12:48.000                             : en:Charles informs John about his unfaithful wife, farm
00:16:02.000                             : en:Charles makes a speech for Angus & Laura, reception
00:18:54.000                             : en:Matthew tells Charles to talk to Carrie, reception
00:21:55.000                             : en:Tom offers Charles a place for the night, reception
00:24:46.000                             : en:Charles declines Tom's offer & goes to the pub, Tom's car
00:26:45.000                             : en:Carrie hides from George, hotel
00:29:30.000                             : en:Carrie invites Charles to her room, hotel
00:32:41.000                             : en:Carrie tells Charles about her going back to America, hotel
00:35:01.000                             : en:Charles & Scarlett arrive at the wedding, church
00:36:48.000                             : en:Lydia & Bernard exchange their vows, church
00:41:21.000                             : en:Greth tells Charles & Matthew about his theory on marriage, house
00:42:52.000                             : en:Carrie introduces Charles to her fiancee, house
00:45:11.000                             : en:Fion tells Mrs. Beaumont that she likes someone, house
00:49:05.000                             : en:David asks Serena for a dance, house
00:50:37.000                             : en:Charles sees Lydia & Bernard making out, house
00:52:52.000                             : en:Henrietta breaks down in front of Charles, house
00:57:02.000                             : en:Charles leaves Carrie, hotel
00:58:16.000                             : en:Charles & Scarlett get another wedding invitation, Charles house
00:59:23.000                             : en:Charles helps Carrie buy her wedding dress, store
01:01:58.000                             : en:Carrie tells Charles about her affairs, cafe
01:05:37.000                             : en:Charles introduces Carrie to David, mall
01:09:10.000                             : en:Carrie & Hamish exchange their vows, church
01:11:01.000                             : en:Gareth gives a toast, house
01:13:05.000                             : en:Henrietta tells Charles about her boyfriend, house
01:15:18.000                             : en:Fiona tells Charles that she is in love with him, house
01:18:28.000                             : en:Carrie & Hamish thanks everyone, house
01:22:00.000                             : en:Charles informs Matthew about Gareth, house
01:23:03.000                             : en:Everyone attends Gareth's funeral, church
01:24:12.000                             : en:Matthew makes a speech in Gareth's memory, church
01:28:30.000                             : en:Charles talks to Tom about not finding a perfect match, street
01:32:19.000                             : en:Charles gets ready for the wedding, Charles house
01:33:15.000                             : en:Fiona practices her speech for the wedding, street
01:36:31.000                             : en:Tom meets Dierdre at the wedding, church
01:38:59.000                             : en:Carrie tells Charles about her marriage, church
01:41:15.000                             : en:Charles asks for a minute to clear his head, church
01:42:31.000                             : en:Charles asks Matthew about his thoughts on marriage, church
01:45:48.000                             : en:David objects to Charles marrying Henrietta, church
01:49:44.000                             : en:Tom tells Charles that he made the right decision, Charles house
01:51:03.000                             : en:Carrie comes to check on Charles, Charles's house
01:53:35.000                             : en:End Credits
部分资源为软字幕,移动端推荐播放器:MxPlayer,nPlayer,infuse ,其他播放器请自行尝试。
部分资源为软字幕,电脑端推荐播放器:PotPlayer,完美解码,KMPLAYER,其他播放器请自行尝试。






~~~~~~~~~~~~~~~~~~~~~~~~~~~~~~~~~~~~~~~~~
[更 早][其它][剧情][WEB-1080P]四个婚礼和一个葬礼[无字片源].Four.Weddings.and.a.Funeral.1994.1080p.AMZN.WEB-DL.DDP.5.1.H.264

【文件列表】:


Four.Weddings.and.a.Funeral.1994.1080p.AMZN.WEB-DL.DDP.5.1.H.264-DreamHD.



【下载地址列表】:


游客
文件下载链接就在这里,在您回复评论成功后才能显示。
请勿回复无意义的灌水内容。


下拉页面到最底部回复或者【点击此处快捷回复】,回复后返回此处即可查看下载链接。
如您没注册本站会员,可以点击注册本站,注册后即可回复下载。



软字幕无法在截图上展现,HDR版本/杜比视界版本截图会出现颜色异常,请使用支持的设备播放!






[img][/img]






[img][/img]

(HDR版本/杜比视界版本,截图会出现颜色异常,请使用支持的设备播放)

小贴士:【影视自媒体解说文案请移步:夏至文案解说网 www.xiazhi.vip

上一篇:[2023][欧美][剧情][WEB-4K]敌人[简繁英字幕].FOE.2023.2160p.AMZN.WEB-DL.DDP.5.1.Atmos.HDR10/.H.265- 11.96GB
下一篇:[2023][印度][剧情][WEB-1080P]嗨,爸爸[无字片源].Hi.Nanna.2023.1080p.NF.WEB-DL.DDP.5.1.H.264- 6.14GB
回复

使用道具 举报

您需要登录后才可以回帖 登录 | 立即注册

本版积分规则

Archiver|手机版|小众纪录片影视聚合

GMT+8, 2024-7-16 23:29 , Processed in 0.401511 second(s), 12 queries , Gzip On, Redis On.

Powered by 小众纪录片影视聚合 @2010-2023

Copyright © 2010-2024, https://www.xzjlp.com/.


免责说明:本站所有内容链接、图文介绍等均来自于互联网网友分享,本站仅支持web页面展示和文字介绍,绝不提供在线观看和存储服务,也不参与录制、上传、压片。若本站收录内容无意侵犯贵司版权,请发邮件到【a885185#163.com】联系本站,我们将在第一时间删除侵权内容。谢谢!

快速回复 返回顶部 返回列表