小众纪录片影视聚合

 找回密码
 立即注册
查看: 12|回复: 0

[蓝光电影] [2023][印度][剧情][WEB-1080P]嗨,爸爸[无字片源].Hi.Nanna.2023.1080p.NF.WEB-DL.DDP.5.1.H.264- 6.14GB

[复制链接]

112万

主题

112万

帖子

112万

积分

超级版主

Rank: 8Rank: 8

积分
1128817
发表于 2024-7-9 21:12:56 | 显示全部楼层 |阅读模式


[2023][印度][剧情][WEB-1080P]嗨,爸爸[无字片源].Hi.Nanna.2023.1080p.NF.WEB-DL.DDP.5.1.H.264- 6.14GB

完整标题:嗨,爸爸[无字片源].Hi.Nanna.2023.1080p.NF.WEB-DL.DDP.5.1.H.264-DreamHD 6.14GB
◎标  题 嗨,爸爸
◎片  名 Hi Nanna
◎年  代 2023
◎产  地 印度
◎类  别 剧情 / 爱情 / 家庭
◎语  言 泰卢固语
◎上映日期 2023-12-07(印度)
◎IMDb评分 8.4/10 (3348人评价)
◎IMDb链接 https://www.imdb.com/title/tt25433734/
◎豆瓣链接 https://movie.douban.com/subject/36678169/
◎片  长 155分钟
◎演  员 Mrunal Thakur Mrunal Thakur
       施卢蒂·哈森 Shruti K. Haasan
◎简  介
    维杰(纳尼 饰)是一名专业摄影师,他的生活围绕着女儿玛希(琪拉·卡纳 饰)展开。玛希身患绝症,为了生命而挣扎。维杰对女儿一往情深,他为玛希编织故事,用母亲不在身边的故事吸引她,同时努力应对生活中的各种挑战。在这种情况下,亚什娜(Mrunal Thakur 饰)为了拯救玛希闯入了他们的生活。
点击图片可查看大图
软字幕无法在截图上展现,HDR版本/杜比视界版本截图会出现颜色异常,请使用支持的设备播放!
##### MediaInfo ######
General
Unique ID                                : 257498000899520441211925072970913096016 (0xC1B84FA150AD63C941C9D5FC77A32150)
Complete name                            : Hi.Nanna.2023.1080p.NF.WEB-DL.DDP.5.1.H.264-DreamHD.mkv
Duration                                 : 2 h 36 min
Overall bit rate mode                    : Variable
Overall bit rate                         : 5 625 kb/s
Video
ID                                       : 1
Format                                   : AVC
Format/Info                              : Advanced Video Codec
Format profile                           : Main@L4
Format settings                          : CABAC / 3 Ref Frames
Format settings, CABAC                   : Yes
Format settings, Reference frames        : 3 frames
Format settings, GOP                     : M=3, N=48
Codec ID                                 : V_MPEG4/ISO/AVC
Duration                                 : 2 h 36 min
Bit rate mode                            : Variable
Bit rate                                 : 5 000 kb/s
Maximum bit rate                         : 7 500 kb/s
Width                                    : 1 920 pixels
Height                                   : 1 080 pixels
Display aspect ratio                     : 16:9
Frame rate mode                          : Constant
Frame rate                               : 24.000 FPS
Color space                              : YUV
Chroma subsampling                       : 4:2:0
Bit depth                                : 8 bits
Scan type                                : Progressive
Bits/(Pixel*Frame)                       : 0.100
Stream size                              : 5.44 GiB (89%)
Writing library                          : x264 core 148 r2727 7d026e8
Encoding settings                        : cabac=1 / ref=3 / deblock=1:0:0 / analyse=0x1:0x111 / me=umh / subme=10 / psy=1 / psy_rd=1.00:0.00 / mixed_ref=1 / me_range=24 / chroma_me=1 / trellis=2 / 8x8dct=0 / cqm=0 / deadzone=21,11 / fast_pskip=1 / chroma_qp_offset=-2 / threads=6 / lookahead_threads=1 / sliced_threads=0 / nr=0 / decimate=1 / interlaced=0 / bluray_compat=0 / stitchable=1 / constrained_intra=0 / bframes=2 / b_pyramid=0 / b_adapt=2 / b_bias=0 / direct=3 / weightb=1 / open_gop=0 / weightp=2 / keyint=240 / keyint_min=121 / scenecut=0 / intra_refresh=0 / rc_lookahead=48 / rc=2pass / mbtree=1 / bitrate=5000 / ratetol=1.0 / qcomp=0.50 / qpmin=6 / qpmax=51 / qpstep=4 / cplxblur=20.0 / qblur=0.5 / vbv_maxrate=7500 / vbv_bufsize=10000 / nal_hrd=vbr / filler=0 / ip_ratio=1.40 / aq=1:1.00
Language                                 : Telugu
Default                                  : Yes
Forced                                   : No
Audio
ID                                       : 2
Format                                   : E-AC-3
Format/Info                              : Enhanced AC-3
Commercial name                          : Dolby Digital Plus
Codec ID                                 : A_EAC3
Duration                                 : 2 h 36 min
Bit rate mode                            : Constant
Bit rate                                 : 640 kb/s
Channel(s)                               : 6 channels
Channel layout                           : L R C LFE Ls Rs
Sampling rate                            : 48.0 kHz
Frame rate                               : 31.250 FPS (1536 SPF)
Compression mode                         : Lossy
Stream size                              : 715 MiB (11%)
Language                                 : Telugu
Service kind                             : Complete Main
Default                                  : Yes
Forced                                   : No
Text
ID                                       : 3
Format                                   : UTF-8
Codec ID                                 : S_TEXT/UTF8
Codec ID/Info                            : UTF-8 Plain Text
Duration                                 : 2 h 33 min
Bit rate                                 : 44 b/s
Frame rate                               : 0.197 FPS
Count of elements                        : 1817
Stream size                              : 50.4 KiB (0%)
Language                                 : English
Default                                  : No
Forced                                   : No
Menu
02:34:20.000                             : en:End Credits
部分资源为软字幕,移动端推荐播放器:MxPlayer,nPlayer,infuse ,其他播放器请自行尝试。
部分资源为软字幕,电脑端推荐播放器:PotPlayer,完美解码,KMPLAYER,其他播放器请自行尝试。






~~~~~~~~~~~~~~~~~~~~~~~~~~~~~~~~~~~~~~~~~
[2023][印度][剧情][WEB-1080P]嗨,爸爸[无字片源].Hi.Nanna.2023.1080p.NF.WEB-DL.DDP.5.1.H.264- 6.14GB

【文件列表】:


Hi.Nanna.2023.1080p.NF.WEB-DL.DDP.5.1.H.264-DreamHD.

Hi.Nanna.2023.1080p.NF.WEB-DL.DDP.5.1.H.264-DreamHD.



【下载地址列表】:


游客
文件下载链接就在这里,在您回复评论成功后才能显示。
请勿回复无意义的灌水内容。


下拉页面到最底部回复或者【点击此处快捷回复】,回复后返回此处即可查看下载链接。
如您没注册本站会员,可以点击注册本站,注册后即可回复下载。



软字幕无法在截图上展现,HDR版本/杜比视界版本截图会出现颜色异常,请使用支持的设备播放!






[img][/img]






[img][/img]

(HDR版本/杜比视界版本,截图会出现颜色异常,请使用支持的设备播放)

小贴士:【影视自媒体解说文案请移步:夏至文案解说网 www.xiazhi.vip

上一篇:[更 早][其它][剧情][WEB-1080P]四个婚礼和一个葬礼[无字片源].Four.Weddings.and.a.Funeral.1994.1080p.AMZN.WEB-DL.DDP.5.1.H.264
下一篇:[2023][欧美][喜剧][WEB-4K]芭比[HDR/杜比视界双版本][无字片源].Barbie.2023.2160p.Max.WEB-DL.DDP.5.1.Atmos.DoVi.HDR.H.265-
回复

使用道具 举报

您需要登录后才可以回帖 登录 | 立即注册

本版积分规则

Archiver|手机版|小众纪录片影视聚合

GMT+8, 2024-7-17 00:31 , Processed in 0.109502 second(s), 11 queries , Gzip On, Redis On.

Powered by 小众纪录片影视聚合 @2010-2023

Copyright © 2010-2024, https://www.xzjlp.com/.


免责说明:本站所有内容链接、图文介绍等均来自于互联网网友分享,本站仅支持web页面展示和文字介绍,绝不提供在线观看和存储服务,也不参与录制、上传、压片。若本站收录内容无意侵犯贵司版权,请发邮件到【a885185#163.com】联系本站,我们将在第一时间删除侵权内容。谢谢!

快速回复 返回顶部 返回列表