小众纪录片影视聚合

 找回密码
 立即注册
查看: 11|回复: 0

[蓝光电影] [2023][欧美][喜剧][WEB-4K]芭比[HDR/杜比视界双版本][无字片源].Barbie.2023.2160p.Max.WEB-DL.DDP.5.1.Atmos.DoVi.HDR.H.265-

[复制链接]

112万

主题

112万

帖子

112万

积分

超级版主

Rank: 8Rank: 8

积分
1128817
发表于 7 天前 | 显示全部楼层 |阅读模式


[2023][欧美][喜剧][WEB-4K]芭比[HDR/杜比视界双版本][无字片源].Barbie.2023.2160p.Max.WEB-DL.DDP.5.1.Atmos.DoVi.HDR.H.265-

完整标题:芭比[HDR/杜比视界双版本][无字片源].Barbie.2023.2160p.Max.WEB-DL.DDP.5.1.Atmos.DoVi.HDR.H.265-DreamHD 15.34GB
◎标  题 芭比
◎译  名 芭比娃娃 / 芭比真人版 / 芭比娃娃真人版
◎片  名 Barbie
◎年  代 2023
◎产  地 美国 / 加拿大
◎类  别 喜剧 / 奇幻 / 冒险
◎语  言 英语
◎上映日期 2023-07-21(美国 / 中国大陆) / 2023-07-09(洛杉矶首映)
◎IMDb评分 6.9/10 (447841人评价)
◎IMDb链接 https://www.imdb.com/title/tt1517268/
◎豆瓣评分 8.1/10 (602338人评价)
◎豆瓣链接 https://movie.douban.com/subject/4058939/
◎片  长 114分钟
◎导  演 格蕾塔·葛韦格 Greta Gerwig
◎编  剧 格蕾塔·葛韦格 Greta Gerwig
       诺亚·鲍姆巴赫 Noah Baumbach
◎演  员 玛格特·罗比 Margot Robbie
       瑞恩·高斯林 Ryan Gosling
       亚美莉卡·费雷拉 America Ferrera
       阿丽亚娜·格林布拉特 Ariana Greenblatt
       凯特·麦克金农 Kate McKinnon
       海伦·米伦 Helen Mirren
       威尔·法瑞尔 Will Ferrell
       伊萨·雷 Issa Rae
       哈莉·尼夫 Hari Nef
       艾玛·麦基 Emma Mackey
       亚历山德拉·希普 Alexandra Shipp
       莎朗·鲁妮 Sharon Rooney
       妮可拉·考夫兰 Nicola Coughlan
       迈克尔·塞拉 Michael Cera
       康纳·斯温德尔 Connor Swindells
       舒提·盖特瓦 Ncuti Gatwa
       刘思慕 Simu Liu
       金斯利·本-阿迪尔 Kingsley Ben-Adir
       斯科特·埃文斯 Scott Evans
       杜阿·利帕 Dua Lipa
       约翰·塞纳 John Cena
       雷亚·普尔曼 Rhea Perlman
       里图·阿亚 Ritu Arya
       安娜·科鲁兹·凯恩 Ana Cruz Kayne
       埃默拉尔德·芬内尔 Emerald Fennell
       詹米·德米特鲁 Jamie Demetriou
       安·罗斯 Ann Roth
       玛瑞萨·阿贝拉 Marisa Abela
       妮基塔·查达哈 Nikkita Chadha
       安妮·玛莫罗 Annie Mumolo
       麦肯纳·罗伯茨 McKenna Roberts
       汉娜·卡利克-布朗 Hannah Khalique-Brown
       斯特林·琼斯 Sterling Jones
       黛布·海特 Deb Hiett
       杰西卡·A·凯撒 Jessica A. Caesar
       卢克· 穆伦 Luke Mullen
       杰拉德琳·切瓦蕾 Géraldine Chevalley
       拉姆赞·米亚 Ramzan Miah
       贾斯汀·皮尔斯 Justin Price
       凯莉·里安·桑松 Kelly Rian Sanson
       埃文·沙夫兰 Evan Shafran
       维尔·梅里克 Will Merrick
       亚当·雷 Adam Ray
       格蕾丝·贾巴里 Grace Jabbari
◎简  介
    在梦幻浪漫的芭比乐园里,美丽自信的芭比们每日过着快乐无忧的生活,她们活跃在每一个工作岗位,肯是点缀,女孩的聚会才至关重要。直到某一天,我们的主角芭比(玛格特·罗比 Margot Robbie 饰)突然提到了生死,她的完美生活毫无征兆发生改变。她的口气不再清新,面容开始犹豫憔悴,也无法轻盈地从顶楼飘落下来。经前辈点播,她意识到人类世界某个人和她建立着联系,而那个人的心境似乎正投射到芭比的身上来。                                    为了找回曾经的完美生活,芭比和肯(瑞恩·高斯林 Ryan Gosling 饰)辗转来到现实世界,并经过一番波折见到了葛洛莉娅(亚美莉卡·费雷拉 America Ferrera 饰)母女,而肯也在见识到男权社会的魅力之后,心中升起要改变芭比乐园的念头……
点击图片可查看大图
软字幕无法在截图上展现,HDR版本/杜比视界版本截图会出现颜色异常,请使用支持的设备播放!
##### MediaInfo ######
General
Unique ID                                : 277802222125816970919254486118130749759 (0xD0FEC306B2818A3C3758E26819AF913F)
Complete name                            : Barbie.2023.2160p.Max.WEB-DL.DDP.5.1.Atmos.DoVi.HDR.H.265-DreamHD.mkv
Duration                                 : 1 h 54 min
Overall bit rate                         : 19.3 Mb/s
Video
ID                                       : 1
Format                                   : HEVC
Format/Info                              : High Efficiency Video Coding
Format profile                           : Main [email protected]@Main
HDR format                               : Dolby Vision, Version 1.0, dvhe.08.06, BL+RPU, HDR10 compatible / SMPTE ST 2086, HDR10 compatible
Codec ID                                 : V_MPEGH/ISO/HEVC
Duration                                 : 1 h 54 min
Bit rate                                 : 18.6 Mb/s
Width                                    : 3 840 pixels
Height                                   : 1 920 pixels
Display aspect ratio                     : 2.000
Frame rate mode                          : Constant
Frame rate                               : 23.976 (24000/1001) FPS
Color space                              : YUV
Chroma subsampling                       : 4:2:0 (Type 0)
Bit depth                                : 10 bits
Bits/(Pixel*Frame)                       : 0.105
Stream size                              : 14.8 GiB (97%)
Writing library                          : x265 3.5f0c1022b6:[Linux][GCC 10.2.1][64 bit] 10bit
Encoding settings                        : cpuid=1111039 / frame-threads=5 / wpp / no-pmode / no-pme / psnr / ssim / log-level=2 / input-csp=1 / input-res=3840x1920 / interlace=0 / total-frames=0 / level-idc=0 / high-tier=0 / uhd-bd=0 / ref=3 / no-allow-non-conformance / repeat-headers / annexb / aud / no-eob / no-eos / hrd / info / hash=0 / no-temporal-layers / no-open-gop / min-keyint=96 / keyint=96 / gop-lookahead=0 / bframes=4 / b-adapt=2 / b-pyramid / bframe-bias=0 / rc-lookahead=96 / lookahead-slices=8 / scenecut=40 / no-hist-scenecut / radl=0 / no-splice / no-intra-refresh / ctu=64 / min-cu-size=8 / no-rect / no-amp / max-tu-size=32 / tu-inter-depth=1 / tu-intra-depth=1 / limit-tu=0 / rdoq-level=0 / dynamic-rd=0.00 / no-ssim-rd / signhide / no-tskip / nr-intra=0 / nr-inter=0 / no-constrained-intra / strong-intra-smoothing / max-merge=3 / limit-refs=1 / no-limit-modes / me=1 / subme=2 / merange=57 / temporal-mvp / no-frame-dup / no-hme / weightp / weightb / no-analyze-src-pics / deblock=0:0 / no-sao / no-sao-non-deblock / rd=3 / selective-sao=0 / early-skip / rskip / no-fast-intra / no-tskip-fast / no-cu-lossless / b-intra / no-splitrd-skip / rdpenalty=0 / psy-rd=2.00 / psy-rdoq=0.00 / no-rd-refine / no-lossless / cbqpoffs=0 / crqpoffs=0 / rc=crf / crf=11.0 / qcomp=0.60 / qpstep=4 / stats-write=0 / stats-read=0 / vbv-maxrate=21900 / vbv-bufsize=40000 / vbv-init=0.9 / min-vbv-fullness=50.0 / max-vbv-fullness=80.0 / crf-max=0.0 / crf-min=0.0 / ipratio=1.40 / pbratio=1.30 / aq-mode=2 / aq-strength=1.00 / cutree / zone-count=0 / no-strict-cbr / qg-size=32 / no-rc-grain / qpmax=69 / qpmin=0 / no-const-vbv / sar=1 / overscan=0 / videoformat=5 / range=0 / colorprim=9 / transfer=16 / colormatrix=9 / chromaloc=1 / chromaloc-top=0 / chromaloc-bottom=0 / display-window=0 / master-display=G(13250,34500)B(7500,3000)R(34000,16000)WP(15635,16450)L(10000000,1) / cll=446,115 / min-luma=0 / max-luma=1023 / log2-max-poc-lsb=8 / vui-timing-info / vui-hrd-info / slices=1 / no-opt-qp-pps / no-opt-ref-list-length-pps / no-multi-pass-opt-rps / scenecut-bias=0.05 / hist-threshold=0.03 / no-opt-cu-delta-qp / no-aq-motion / hdr10 / hdr10-opt / no-dhdr10-opt / no-idr-recovery-sei / analysis-reuse-level=0 / analysis-save-reuse-level=0 / analysis-load-reuse-level=0 / scale-factor=0 / refine-intra=0 / refine-inter=0 / refine-mv=1 / refine-ctu-distortion=0 / no-limit-sao / ctu-info=0 / no-lowpass-dct / refine-analysis-type=0 / copy-pic=1 / max-ausize-factor=1.0 / no-dynamic-refine / no-single-sei / no-hevc-aq / no-svt / no-field / qp-adaptation-range=1.00 / scenecut-aware-qp=0conformance-window-offsets / right=0 / bottom=0 / decoder-max-rate=0 / no-vbv-live-multi-pass
Language                                 : English
Default                                  : Yes
Forced                                   : No
Color range                              : Limited
Color primaries                          : BT.2020
Transfer characteristics                 : PQ
Matrix coefficients                      : BT.2020 non-constant
Mastering display color primaries        : Display P3
Mastering display luminance              : min: 0.0001 cd/m2, max: 1000 cd/m2
Maximum Content Light Level              : 446 cd/m2
Maximum Frame-Average Light Level        : 115 cd/m2
Audio
ID                                       : 2
Format                                   : E-AC-3 JOC
Format/Info                              : Enhanced AC-3 with Joint Object Coding
Commercial name                          : Dolby Digital Plus with Dolby Atmos
Codec ID                                 : A_EAC3
Duration                                 : 1 h 54 min
Bit rate mode                            : Constant
Bit rate                                 : 640 kb/s
Channel(s)                               : 6 channels
Channel layout                           : L R C LFE Ls Rs
Sampling rate                            : 48.0 kHz
Frame rate                               : 31.250 FPS (1536 SPF)
Compression mode                         : Lossy
Stream size                              : 522 MiB (3%)
Language                                 : English
Service kind                             : Complete Main
Default                                  : Yes
Forced                                   : No
Complexity index                         : 16
Number of dynamic objects                : 15
Bed channel count                        : 1 channel
Bed channel configuration                : LFE
Text #1
ID                                       : 3
Format                                   : UTF-8
Codec ID                                 : S_TEXT/UTF8
Codec ID/Info                            : UTF-8 Plain Text
Duration                                 : 1 h 51 min
Bit rate                                 : 97 b/s
Frame rate                               : 0.379 FPS
Count of elements                        : 2541
Stream size                              : 79.9 KiB (0%)
Title                                    : SDH
Language                                 : English
Default                                  : No
Forced                                   : No
Text #2
ID                                       : 4
Format                                   : UTF-8
Codec ID                                 : S_TEXT/UTF8
Codec ID/Info                            : UTF-8 Plain Text
Duration                                 : 1 h 53 min
Bit rate                                 : 82 b/s
Frame rate                               : 0.365 FPS
Count of elements                        : 2489
Stream size                              : 68.5 KiB (0%)
Title                                    : Brazil (SDH)
Language                                 : Portuguese
Default                                  : No
Forced                                   : No
Text #3
ID                                       : 5
Format                                   : UTF-8
Codec ID                                 : S_TEXT/UTF8
Codec ID/Info                            : UTF-8 Plain Text
Duration                                 : 1 h 52 min
Bit rate                                 : 86 b/s
Frame rate                               : 0.343 FPS
Count of elements                        : 2320
Stream size                              : 71.2 KiB (0%)
Title                                    : Latin America (SDH)
Language                                 : Spanish
Default                                  : No
Forced                                   : No
Text #4
ID                                       : 6
Format                                   : UTF-8
Codec ID                                 : S_TEXT/UTF8
Codec ID/Info                            : UTF-8 Plain Text
Duration                                 : 1 h 52 min
Bit rate                                 : 107 b/s
Frame rate                               : 0.288 FPS
Count of elements                        : 1949
Stream size                              : 88.7 KiB (0%)
Language                                 : Bulgarian
Default                                  : No
Forced                                   : No
Text #5
ID                                       : 7
Format                                   : UTF-8
Codec ID                                 : S_TEXT/UTF8
Codec ID/Info                            : UTF-8 Plain Text
Duration                                 : 1 h 47 min
Bit rate                                 : 78 b/s
Frame rate                               : 0.288 FPS
Count of elements                        : 1865
Stream size                              : 62.4 KiB (0%)
Title                                    : Spain
Language                                 : Catalan
Default                                  : No
Forced                                   : No
Text #6
ID                                       : 8
Format                                   : UTF-8
Codec ID                                 : S_TEXT/UTF8
Codec ID/Info                            : UTF-8 Plain Text
Duration                                 : 1 h 52 min
Bit rate                                 : 69 b/s
Frame rate                               : 0.283 FPS
Count of elements                        : 1916
Stream size                              : 57.4 KiB (0%)
Title                                    : Czechia
Language                                 : Czech
Default                                  : No
Forced                                   : No
Text #7
ID                                       : 9
Format                                   : UTF-8
Codec ID                                 : S_TEXT/UTF8
Codec ID/Info                            : UTF-8 Plain Text
Duration                                 : 1 h 52 min
Bit rate                                 : 60 b/s
Frame rate                               : 0.184 FPS
Count of elements                        : 1242
Stream size                              : 49.8 KiB (0%)
Title                                    : Denmark
Language                                 : Danish
Default                                  : No
Forced                                   : No
Text #8
ID                                       : 10
Format                                   : UTF-8
Codec ID                                 : S_TEXT/UTF8
Codec ID/Info                            : UTF-8 Plain Text
Duration                                 : 1 h 52 min
Bit rate                                 : 72 b/s
Frame rate                               : 0.285 FPS
Count of elements                        : 1931
Stream size                              : 60.3 KiB (0%)
Title                                    : Latin America
Language                                 : Spanish
Default                                  : No
Forced                                   : No
Text #9
ID                                       : 11
Format                                   : UTF-8
Codec ID                                 : S_TEXT/UTF8
Codec ID/Info                            : UTF-8 Plain Text
Duration                                 : 1 h 52 min
Bit rate                                 : 69 b/s
Frame rate                               : 0.278 FPS
Count of elements                        : 1882
Stream size                              : 57.0 KiB (0%)
Language                                 : Spanish
Default                                  : No
Forced                                   : No
Text #10
ID                                       : 12
Format                                   : UTF-8
Codec ID                                 : S_TEXT/UTF8
Codec ID/Info                            : UTF-8 Plain Text
Duration                                 : 1 h 52 min
Bit rate                                 : 67 b/s
Frame rate                               : 0.284 FPS
Count of elements                        : 1919
Stream size                              : 55.6 KiB (0%)
Language                                 : Finnish
Default                                  : No
Forced                                   : No
Text #11
ID                                       : 13
Format                                   : UTF-8
Codec ID                                 : S_TEXT/UTF8
Codec ID/Info                            : UTF-8 Plain Text
Duration                                 : 1 h 52 min
Bit rate                                 : 58 b/s
Frame rate                               : 0.265 FPS
Count of elements                        : 1791
Stream size                              : 47.9 KiB (0%)
Language                                 : French
Default                                  : No
Forced                                   : No
Text #12
ID                                       : 14
Format                                   : UTF-8
Codec ID                                 : S_TEXT/UTF8
Codec ID/Info                            : UTF-8 Plain Text
Duration                                 : 1 h 52 min
Bit rate                                 : 69 b/s
Frame rate                               : 0.275 FPS
Count of elements                        : 1863
Stream size                              : 57.4 KiB (0%)
Language                                 : Croatian
Default                                  : No
Forced                                   : No
Text #13
ID                                       : 15
Format                                   : UTF-8
Codec ID                                 : S_TEXT/UTF8
Codec ID/Info                            : UTF-8 Plain Text
Duration                                 : 1 h 52 min
Bit rate                                 : 73 b/s
Frame rate                               : 0.285 FPS
Count of elements                        : 1930
Stream size                              : 60.7 KiB (0%)
Language                                 : Hungarian
Default                                  : No
Forced                                   : No
Text #14
ID                                       : 16
Format                                   : UTF-8
Codec ID                                 : S_TEXT/UTF8
Codec ID/Info                            : UTF-8 Plain Text
Duration                                 : 1 h 52 min
Bit rate                                 : 115 b/s
Frame rate                               : 0.288 FPS
Count of elements                        : 1951
Stream size                              : 95.4 KiB (0%)
Language                                 : Macedonian
Default                                  : No
Forced                                   : No
Text #15
ID                                       : 17
Format                                   : UTF-8
Codec ID                                 : S_TEXT/UTF8
Codec ID/Info                            : UTF-8 Plain Text
Duration                                 : 1 h 52 min
Bit rate                                 : 59 b/s
Frame rate                               : 0.192 FPS
Count of elements                        : 1296
Stream size                              : 49.3 KiB (0%)
Language                                 : Dutch
Default                                  : No
Forced                                   : No
Text #16
ID                                       : 18
Format                                   : UTF-8
Codec ID                                 : S_TEXT/UTF8
Codec ID/Info                            : UTF-8 Plain Text
Duration                                 : 1 h 52 min
Bit rate                                 : 63 b/s
Frame rate                               : 0.220 FPS
Count of elements                        : 1486
Stream size                              : 52.6 KiB (0%)
Language                                 : Norwegian
Default                                  : No
Forced                                   : No
Text #17
ID                                       : 19
Format                                   : UTF-8
Codec ID                                 : S_TEXT/UTF8
Codec ID/Info                            : UTF-8 Plain Text
Duration                                 : 1 h 52 min
Bit rate                                 : 62 b/s
Frame rate                               : 0.277 FPS
Count of elements                        : 1875
Stream size                              : 52.0 KiB (0%)
Language                                 : Polish
Default                                  : No
Forced                                   : No
Text #18
ID                                       : 20
Format                                   : UTF-8
Codec ID                                 : S_TEXT/UTF8
Codec ID/Info                            : UTF-8 Plain Text
Duration                                 : 1 h 52 min
Bit rate                                 : 71 b/s
Frame rate                               : 0.286 FPS
Count of elements                        : 1938
Stream size                              : 58.9 KiB (0%)
Title                                    : Brazil
Language                                 : Portuguese
Default                                  : No
Forced                                   : No
Text #19
ID                                       : 21
Format                                   : UTF-8
Codec ID                                 : S_TEXT/UTF8
Codec ID/Info                            : UTF-8 Plain Text
Duration                                 : 1 h 52 min
Bit rate                                 : 79 b/s
Frame rate                               : 0.291 FPS
Count of elements                        : 1968
Stream size                              : 66.0 KiB (0%)
Language                                 : Portuguese
Default                                  : No
Forced                                   : No
Text #20
ID                                       : 22
Format                                   : UTF-8
Codec ID                                 : S_TEXT/UTF8
Codec ID/Info                            : UTF-8 Plain Text
Duration                                 : 1 h 52 min
Bit rate                                 : 75 b/s
Frame rate                               : 0.276 FPS
Count of elements                        : 1869
Stream size                              : 62.4 KiB (0%)
Language                                 : Romanian
Default                                  : No
Forced                                   : No
Text #21
ID                                       : 23
Format                                   : UTF-8
Codec ID                                 : S_TEXT/UTF8
Codec ID/Info                            : UTF-8 Plain Text
Duration                                 : 1 h 52 min
Bit rate                                 : 62 b/s
Frame rate                               : 0.275 FPS
Count of elements                        : 1859
Stream size                              : 51.9 KiB (0%)
Language                                 : Slovak
Default                                  : No
Forced                                   : No
Text #22
ID                                       : 24
Format                                   : UTF-8
Codec ID                                 : S_TEXT/UTF8
Codec ID/Info                            : UTF-8 Plain Text
Duration                                 : 1 h 52 min
Bit rate                                 : 62 b/s
Frame rate                               : 0.235 FPS
Count of elements                        : 1590
Stream size                              : 51.8 KiB (0%)
Title                                    : Slovenia
Language                                 : Slovenian
Default                                  : No
Forced                                   : No
Text #23
ID                                       : 25
Format                                   : UTF-8
Codec ID                                 : S_TEXT/UTF8
Codec ID/Info                            : UTF-8 Plain Text
Duration                                 : 1 h 52 min
Bit rate                                 : 60 b/s
Frame rate                               : 0.282 FPS
Count of elements                        : 1907
Stream size                              : 49.9 KiB (0%)
Title                                    : Latin, Serbia
Language                                 : Serbian
Default                                  : No
Forced                                   : No
Text #24
ID                                       : 26
Format                                   : UTF-8
Codec ID                                 : S_TEXT/UTF8
Codec ID/Info                            : UTF-8 Plain Text
Duration                                 : 1 h 52 min
Bit rate                                 : 65 b/s
Frame rate                               : 0.210 FPS
Count of elements                        : 1424
Stream size                              : 54.1 KiB (0%)
Title                                    : Sweden
Language                                 : Swedish
Default                                  : No
Forced                                   : No
部分资源为软字幕,移动端推荐播放器:MxPlayer,nPlayer,infuse ,其他播放器请自行尝试。
部分资源为软字幕,电脑端推荐播放器:PotPlayer,完美解码,KMPLAYER,其他播放器请自行尝试。






~~~~~~~~~~~~~~~~~~~~~~~~~~~~~~~~~~~~~~~~~
[2023][欧美][喜剧][WEB-4K]芭比[HDR/杜比视界双版本][无字片源].Barbie.2023.2160p.Max.WEB-DL.DDP.5.1.Atmos.DoVi.HDR.H.265-

【文件列表】:


Barbie.2023.2160p.Max.WEB-DL.DDP.5.1.Atmos.DoVi.HDR.H.265-DreamHD.



【下载地址列表】:


游客
文件下载链接就在这里,在您回复评论成功后才能显示。
请勿回复无意义的灌水内容。


下拉页面到最底部回复或者【点击此处快捷回复】,回复后返回此处即可查看下载链接。
如您没注册本站会员,可以点击注册本站,注册后即可回复下载。



软字幕无法在截图上展现,HDR版本/杜比视界版本截图会出现颜色异常,请使用支持的设备播放!






[img][/img]






[img][/img]

(HDR版本/杜比视界版本,截图会出现颜色异常,请使用支持的设备播放)

小贴士:【影视自媒体解说文案请移步:夏至文案解说网 www.xiazhi.vip

上一篇:[2023][印度][剧情][WEB-1080P]嗨,爸爸[无字片源].Hi.Nanna.2023.1080p.NF.WEB-DL.DDP.5.1.H.264- 6.14GB
下一篇:[2023][欧美][喜剧][WEB-4K]芭比[杜比视界版本][无字片源].Barbie.2023.2160p.Max.WEB-DL.DDP.5.1.Atmos.DV.H.265- 14.
回复

使用道具 举报

您需要登录后才可以回帖 登录 | 立即注册

本版积分规则

Archiver|手机版|小众纪录片影视聚合

GMT+8, 2024-7-16 23:17 , Processed in 0.079700 second(s), 12 queries , Gzip On, Redis On.

Powered by 小众纪录片影视聚合 @2010-2023

Copyright © 2010-2024, https://www.xzjlp.com/.


免责说明:本站所有内容链接、图文介绍等均来自于互联网网友分享,本站仅支持web页面展示和文字介绍,绝不提供在线观看和存储服务,也不参与录制、上传、压片。若本站收录内容无意侵犯贵司版权,请发邮件到【a885185#163.com】联系本站,我们将在第一时间删除侵权内容。谢谢!

快速回复 返回顶部 返回列表