小众纪录片影视聚合

 找回密码
 立即注册
查看: 11|回复: 0

[蓝光电影] [更 早][欧美][剧情][WEB-4K]死亡地带[HDR/杜比视界双版本][中文字幕].The.Dead.Zone.1983.BluRay.2160p.DTS-HDMA.5.1.DoVi.HDR.x2

[复制链接]

113万

主题

113万

帖子

113万

积分

超级版主

Rank: 8Rank: 8

积分
1134816
发表于 2024-7-9 21:13:16 | 显示全部楼层 |阅读模式


[更 早][欧美][剧情][WEB-4K]死亡地带[HDR/杜比视界双版本][中文字幕].The.Dead.Zone.1983.BluRay.2160p.DTS-HDMA.5.1.DoVi.HDR.x2

完整标题:死亡地带[HDR/杜比视界双版本][中文字幕].The.Dead.Zone.1983.BluRay.2160p.DTS-HDMA.5.1.DoVi.HDR.x265.10bit-DreamHD 22.59GB
◎标  题 死亡地带
◎译  名 再死一次 / 触灵 / 死亡禁区
◎片  名 The Dead Zone
◎年  代 1983
◎产  地 美国
◎类  别 剧情 / 惊悚 / 奇幻
◎语  言 英语 / 俄语
◎上映日期 1983-10-21
◎IMDb评分 7.2/10 (72464人评价)
◎IMDb链接 https://www.imdb.com/title/tt0085407/
◎豆瓣评分 6.7/10 (1888人评价)
◎豆瓣链接 https://movie.douban.com/subject/1301764/
◎片  长 103 分钟
◎导  演 大卫·柯南伯格 David Cronenberg
◎编  剧 杰弗里·鲍姆 Jeffrey Boam
       斯蒂芬·金 Stephen King
◎演  员 克里斯托弗·沃肯 Christopher Walken
       布鲁克·亚当斯 Brooke Adams
       汤姆·斯凯里特 Tom Skerritt
       赫伯特·罗姆 Herbert Lom
       马丁·辛 Martin Sheen
       Roberta Weiss Roberta Weiss
       海伦妮·尤迪 Helene Udy
       肖恩·沙利文 Sean Sullivan
       Joseph Domenchini Joseph Domenchini
       尼古拉斯·坎贝尔 Nicholas Campbell
       威廉·B·戴维斯 William B. Davis
       科琳·杜赫斯特 Colleen Dewhurst
       雷蒙·艾斯特维兹 Ramon Estevez
       安东尼·泽比 Anthony Zerbe
       莱斯利·卡尔森 Leslie Carlson
       杰姬·布罗斯 Jackie Burroughs
       David Rigby David Rigby
◎简  介
    尊尼在回家不幸撞上十八轮的大货车,死里逃生,昏迷了五年,在桑恩维萨克大夫的治疗下,终于醒了。撞伤后的尊尼,变成有奇特的超能力,不但能预测护士家失火,也能看到大夫的过去,顿成镇上的风云人物。##### MediaInfo ######
General
Unique ID                                : 88717663713957618424285517164375296261 (0x42BE66881A90FAA1F92A85B498BDC905)
Complete name                            : The.Dead.Zone.1983.BluRay.2160p.DTS-HDMA.5.1.DoVi.HDR.x265.10bit-DreamHD.mkv
Duration                                 : 1 h 43 min
Overall bit rate mode                    : Variable
Overall bit rate                         : 31.2 Mb/s
Video
ID                                       : 1
Format                                   : HEVC
Format/Info                              : High Efficiency Video Coding
Format profile                           : Main [email protected]@High
HDR format                               : Dolby Vision, Version 1.0, dvhe.08.06, BL+RPU, HDR10 compatible / SMPTE ST 2086, HDR10 compatible
Codec ID                                 : V_MPEGH/ISO/HEVC
Duration                                 : 1 h 43 min
Bit rate                                 : 25.6 Mb/s
Width                                    : 3 840 pixels
Height                                   : 2 076 pixels
Display aspect ratio                     : 1.85:1
Frame rate mode                          : Constant
Frame rate                               : 23.976 (24000/1001) FPS
Color space                              : YUV
Chroma subsampling                       : 4:2:0 (Type 2)
Bit depth                                : 10 bits
Bits/(Pixel*Frame)                       : 0.134
Stream size                              : 18.5 GiB (82%)
Writing library                          : x265 3.5f0c1022b6:[Windows][GCC 10.2.0][64 bit] 10bit
Encoding settings                        : cpuid=1111039 / frame-threads=4 / numa-pools=16 / wpp / no-pmode / no-pme / no-psnr / no-ssim / log-level=2 / input-csp=1 / input-res=3840x2076 / interlace=0 / total-frames=0 / level-idc=51 / high-tier=1 / uhd-bd=0 / ref=5 / no-allow-non-conformance / repeat-headers / annexb / no-aud / no-eob / no-eos / no-hrd / info / hash=0 / no-temporal-layers / open-gop / min-keyint=24 / keyint=240 / gop-lookahead=0 / bframes=8 / b-adapt=2 / b-pyramid / bframe-bias=0 / rc-lookahead=40 / lookahead-slices=0 / scenecut=40 / no-hist-scenecut / radl=0 / no-splice / no-intra-refresh / ctu=64 / min-cu-size=8 / rect / amp / max-tu-size=32 / tu-inter-depth=3 / tu-intra-depth=3 / limit-tu=4 / rdoq-level=2 / dynamic-rd=0.00 / no-ssim-rd / signhide / no-tskip / nr-intra=0 / nr-inter=0 / no-constrained-intra / strong-intra-smoothing / max-merge=4 / limit-refs=1 / limit-modes / me=3 / subme=4 / merange=57 / temporal-mvp / no-frame-dup / no-hme / weightp / weightb / no-analyze-src-pics / deblock=0:0 / sao / no-sao-non-deblock / rd=6 / selective-sao=4 / no-early-skip / rskip / no-fast-intra / no-tskip-fast / no-cu-lossless / b-intra / no-splitrd-skip / rdpenalty=0 / psy-rd=2.00 / psy-rdoq=1.00 / no-rd-refine / no-lossless / cbqpoffs=0 / crqpoffs=0 / rc=crf / crf=19.0 / qcomp=0.60 / qpstep=4 / stats-write=0 / stats-read=0 / vbv-maxrate=160000 / vbv-bufsize=160000 / vbv-init=0.9 / min-vbv-fullness=50.0 / max-vbv-fullness=80.0 / crf-max=0.0 / crf-min=0.0 / ipratio=1.40 / pbratio=1.30 / aq-mode=2 / aq-strength=1.00 / cutree / zone-count=0 / no-strict-cbr / qg-size=32 / no-rc-grain / qpmax=69 / qpmin=0 / no-const-vbv / sar=1 / overscan=0 / videoformat=5 / range=0 / colorprim=9 / transfer=16 / colormatrix=9 / chromaloc=1 / chromaloc-top=2 / chromaloc-bottom=2 / display-window=0 / master-display=G(8500,39850)B(6550,2300)R(35400,14600)WP(15635,16450)L(40000000,50) / cll=814,199 / min-luma=0 / max-luma=1023 / log2-max-poc-lsb=8 / vui-timing-info / vui-hrd-info / slices=1 / no-opt-qp-pps / no-opt-ref-list-length-pps / no-multi-pass-opt-rps / scenecut-bias=0.05 / no-opt-cu-delta-qp / no-aq-motion / no-sbrc / hdr10 / hdr10-opt / no-dhdr10-opt / no-idr-recovery-sei / analysis-reuse-level=0 / analysis-save-reuse-level=0 / analysis-load-reuse-level=0 / scale-factor=0 / refine-intra=0 / refine-inter=0 / refine-mv=1 / refine-ctu-distortion=0 / no-limit-sao / ctu-info=0 / no-lowpass-dct / refine-analysis-type=0 / copy-pic=1 / max-ausize-factor=1.0 / no-dynamic-refine / no-single-sei / no-hevc-aq / no-svt / no-field / qp-adaptation-range=1.00 / scenecut-aware-qp=0conformance-window-offsets / right=0 / bottom=0 / decoder-max-rate=0 / no-vbv-live-multi-pass / no-mcstf
Default                                  : Yes
Forced                                   : No
Color range                              : Limited
Color primaries                          : BT.2020
Transfer characteristics                 : PQ
Matrix coefficients                      : BT.2020 non-constant
Mastering display color primaries        : BT.2020
Mastering display luminance              : min: 0.0050 cd/m2, max: 4000 cd/m2
Maximum Content Light Level              : 814 cd/m2
Maximum Frame-Average Light Level        : 199 cd/m2
Audio #1
ID                                       : 2
ID in the original source medium         : 4352 (0x1100)
Format                                   : DTS XLL
Format/Info                              : Digital Theater Systems
Commercial name                          : DTS-HD Master Audio
Codec ID                                 : A_DTS
Duration                                 : 1 h 43 min
Bit rate mode                            : Variable
Bit rate                                 : 3 510 kb/s
Channel(s)                               : 6 channels
Channel layout                           : C L R Ls Rs LFE
Sampling rate                            : 48.0 kHz
Frame rate                               : 93.750 FPS (512 SPF)
Bit depth                                : 24 bits
Compression mode                         : Lossless
Stream size                              : 2.54 GiB (11%)
Language                                 : English
Default                                  : Yes
Forced                                   : No
Original source medium                   : Blu-ray
Audio #2
ID                                       : 3
ID in the original source medium         : 4353 (0x1101)
Format                                   : DTS XLL
Format/Info                              : Digital Theater Systems
Commercial name                          : DTS-HD Master Audio
Codec ID                                 : A_DTS
Duration                                 : 1 h 43 min
Bit rate mode                            : Variable
Bit rate                                 : 1 998 kb/s
Channel(s)                               : 2 channels
Channel layout                           : L R
Sampling rate                            : 48.0 kHz
Frame rate                               : 93.750 FPS (512 SPF)
Bit depth                                : 24 bits
Compression mode                         : Lossless
Stream size                              : 1.45 GiB (6%)
Title                                    : 立体声
Language                                 : English
Default                                  : No
Forced                                   : No
Original source medium                   : Blu-ray
Text #1
ID                                       : 4
ID in the original source medium         : 4768 (0x12A0)
Format                                   : PGS
Codec ID                                 : S_HDMV/PGS
Codec ID/Info                            : Picture based subtitle format used on BDs/HD-DVDs
Duration                                 : 1 h 40 min
Bit rate                                 : 32.7 kb/s
Frame rate                               : 0.488 FPS
Count of elements                        : 2954
Stream size                              : 23.6 MiB (0%)
Language                                 : English
Default                                  : No
Forced                                   : No
Original source medium                   : Blu-ray
Text #2
ID                                       : 5
ID in the original source medium         : 4769 (0x12A1)
Format                                   : PGS
Codec ID                                 : S_HDMV/PGS
Codec ID/Info                            : Picture based subtitle format used on BDs/HD-DVDs
Duration                                 : 1 h 37 min
Bit rate                                 : 26.0 kb/s
Frame rate                               : 0.315 FPS
Count of elements                        : 1845
Stream size                              : 18.1 MiB (0%)
Language                                 : Chinese
Default                                  : No
Forced                                   : No
Original source medium                   : Blu-ray
Text #3
ID                                       : 6
ID in the original source medium         : 4770 (0x12A2)
Format                                   : PGS
Codec ID                                 : S_HDMV/PGS
Codec ID/Info                            : Picture based subtitle format used on BDs/HD-DVDs
Duration                                 : 1 h 37 min
Bit rate                                 : 26.7 kb/s
Frame rate                               : 0.315 FPS
Count of elements                        : 1845
Stream size                              : 18.6 MiB (0%)
Language                                 : Chinese
Default                                  : No
Forced                                   : No
Original source medium                   : Blu-ray
Menu
00:00:00.000                             : en:Chapter 01
00:10:04.937                             : en:Chapter 02
00:17:09.737                             : en:Chapter 03
00:26:11.861                             : en:Chapter 04
00:38:10.037                             : en:Chapter 05
00:46:00.549                             : en:Chapter 06
00:50:49.463                             : en:Chapter 07
01:00:57.195                             : en:Chapter 08
01:09:55.316                             : en:Chapter 09
01:20:57.519                             : en:Chapter 10
01:31:10.840                             : en:Chapter 11
01:40:30.733                             : en:Chapter 12
01:43:43.842                             : en:Chapter 13
部分资源为软字幕,移动端推荐播放器:MxPlayer,nPlayer,infuse ,其他播放器请自行尝试。
部分资源为软字幕,电脑端推荐播放器:PotPlayer,完美解码,KMPLAYER,其他播放器请自行尝试。






~~~~~~~~~~~~~~~~~~~~~~~~~~~~~~~~~~~~~~~~~
[更 早][欧美][剧情][WEB-4K]死亡地带[HDR/杜比视界双版本][中文字幕].The.Dead.Zone.1983.BluRay.2160p.DTS-HDMA.5.1.DoVi.HDR.x2

【文件列表】:


The.Dead.Zone.1983.BluRay.2160p.DTS-HDMA.5.1.DoVi.HDR.x265.10bit-DreamHD.



【下载地址列表】:


游客
文件下载链接就在这里,在您回复评论成功后才能显示。
请勿回复无意义的灌水内容。


下拉页面到最底部回复或者【点击此处快捷回复】,回复后返回此处即可查看下载链接。
如您没注册本站会员,可以点击注册本站,注册后即可回复下载。



软字幕无法在截图上展现,HDR版本/杜比视界版本截图会出现颜色异常,请使用支持的设备播放!






[img][/img]






[img][/img]

(HDR版本/杜比视界版本,截图会出现颜色异常,请使用支持的设备播放)

小贴士:【影视自媒体解说文案请移步:夏至文案解说网 www.xiazhi.vip

上一篇:[更 早][欧美][剧情][WEB-4K]血迷宫[HDR/杜比视界双版本][简繁英字幕].Blood.Simple.1984.CC.Bluray.2160p.DTS-HDMA5.1.DoVi.HDR.x
下一篇:[2020][欧美][喜剧][WEB-1080P]恋爱保证[中文字幕].Love.Guaranteed.2020.1080p.NF.WEB-DL.x264.DDP5.1- 3.62GB
回复

使用道具 举报

您需要登录后才可以回帖 登录 | 立即注册

本版积分规则

Archiver|手机版|小众纪录片影视聚合

GMT+8, 2024-7-22 07:39 , Processed in 0.138690 second(s), 13 queries , Gzip On, Redis On.

Powered by 小众纪录片影视聚合 @2010-2023

Copyright © 2010-2024, https://www.xzjlp.com/.


免责说明:本站所有内容链接、图文介绍等均来自于互联网网友分享,本站仅支持web页面展示和文字介绍,绝不提供在线观看和存储服务,也不参与录制、上传、压片。若本站收录内容无意侵犯贵司版权,请发邮件到【a885185#163.com】联系本站,我们将在第一时间删除侵权内容。谢谢!

快速回复 返回顶部 返回列表