小众纪录片影视聚合

 找回密码
 立即注册
查看: 9|回复: 0

[蓝光电影] [2020][欧美][喜剧][WEB-1080P]恋爱保证[中文字幕].Love.Guaranteed.2020.1080p.NF.WEB-DL.x264.DDP5.1- 3.62GB

[复制链接]

113万

主题

113万

帖子

113万

积分

超级版主

Rank: 8Rank: 8

积分
1134638
发表于 2024-7-9 21:13:20 | 显示全部楼层 |阅读模式


[2020][欧美][喜剧][WEB-1080P]恋爱保证[中文字幕].Love.Guaranteed.2020.1080p.NF.WEB-DL.x264.DDP5.1- 3.62GB

完整标题:恋爱保证[中文字幕].Love.Guaranteed.2020.1080p.NF.WEB-DL.x264.DDP5.1-SONYHD 3.62GB
◎标  题 恋爱保证
◎译  名 love /  guaranteed❤
◎片  名 Love, Guaranteed
◎年  代 2020
◎产  地 美国
◎类  别 喜剧 / 爱情
◎语  言 英语
◎上映日期 2020-09-03(美国)
◎IMDb评分 5.6/10 (18160人评价)
◎IMDb链接 https://www.imdb.com/title/tt11100856/
◎豆瓣评分 5.7/10 (439人评价)
◎豆瓣链接 https://movie.douban.com/subject/34940720/
◎片  长 90分钟
◎导  演 马克·斯蒂文·约翰逊 Mark Steven Johnson
◎演  员 瑞切尔·蕾·库克 Rachael Leigh Cook
       海瑟·格拉汉姆 Heather Graham
       小达蒙·韦恩斯 Damon Wayans Jr.
       杰德·瑞斯 Jed Rees
       丽莎·杜鲁普 Lisa Durupt
       克莱尔·菲利保 Clare Filipow
       克里斯蒂安·斯隆 Christian Sloan
       布雷登·泰勒 Brendan Taylor
       肖恩·阿姆辛 Sean Amsing
       凯特琳·豪登 Caitlin Howden
◎简  介
    一位工作过度的律师(瑞切尔·蕾·库克饰)同意帮助一名充满魅力的客户(小达蒙·威亚斯饰)起诉一家保证用户能够找到真爱的约会网站。##### MediaInfo ######
General
Unique ID                                : 177447469527166596798766376863643053123 (0x857F23B70BCA60ADB2147A85C5BDAC43)
Complete name                            : Love.Guaranteed.2020.1080p.NF.WEB-DL.x264.DDP5.1-SONYHD.mkv
Duration                                 : 1 h 31 min
Overall bit rate mode                    : Variable
Overall bit rate                         : 5 681 kb/s
Video
ID                                       : 1
Format                                   : AVC
Format/Info                              : Advanced Video Codec
Format profile                           : Main@L4
Format settings                          : CABAC / 3 Ref Frames
Format settings, CABAC                   : Yes
Format settings, Reference frames        : 3 frames
Codec ID                                 : V_MPEG4/ISO/AVC
Duration                                 : 1 h 31 min
Bit rate mode                            : Variable
Bit rate                                 : 5 000 kb/s
Maximum bit rate                         : 7 500 kb/s
Width                                    : 1 920 pixels
Height                                   : 1 080 pixels
Display aspect ratio                     : 16:9
Frame rate mode                          : Constant
Frame rate                               : 24.000 FPS
Color space                              : YUV
Chroma subsampling                       : 4:2:0
Bit depth                                : 8 bits
Scan type                                : Progressive
Bits/(Pixel*Frame)                       : 0.100
Stream size                              : 3.06 GiB (84%)
Writing library                          : x264 core 148 r2727 7d026e8
Encoding settings                        : cabac=1 / ref=3 / deblock=1:0:0 / analyse=0x1:0x111 / me=umh / subme=10 / psy=1 / psy_rd=1.00:0.00 / mixed_ref=1 / me_range=24 / chroma_me=1 / trellis=2 / 8x8dct=0 / cqm=0 / deadzone=21,11 / fast_pskip=1 / chroma_qp_offset=-2 / threads=6 / lookahead_threads=1 / sliced_threads=0 / nr=0 / decimate=1 / interlaced=0 / bluray_compat=0 / stitchable=1 / constrained_intra=0 / bframes=2 / b_pyramid=0 / b_adapt=2 / b_bias=0 / direct=3 / weightb=1 / open_gop=0 / weightp=2 / keyint=240 / keyint_min=121 / scenecut=0 / intra_refresh=0 / rc_lookahead=48 / rc=2pass / mbtree=1 / bitrate=5000 / ratetol=1.0 / qcomp=0.50 / qpmin=6 / qpmax=51 / qpstep=4 / cplxblur=20.0 / qblur=0.5 / vbv_maxrate=7500 / vbv_bufsize=10000 / nal_hrd=vbr / filler=0 / ip_ratio=1.40 / aq=1:1.00
Default                                  : Yes
Forced                                   : No
VENDOR_ID                                : [0][0][0][0]
Audio
ID                                       : 2
Format                                   : E-AC-3 JOC
Format/Info                              : Enhanced AC-3 with Joint Object Coding
Commercial name                          : Dolby Digital Plus with Dolby Atmos
Codec ID                                 : A_EAC3
Duration                                 : 1 h 31 min
Bit rate mode                            : Constant
Bit rate                                 : 768 kb/s
Channel(s)                               : 6 channels
Channel layout                           : L R C LFE Ls Rs
Sampling rate                            : 48.0 kHz
Frame rate                               : 31.250 FPS (1536 SPF)
Bit depth                                : 32 bits
Compression mode                         : Lossy
Stream size                              : 501 MiB (14%)
Title                                    : 英语 [原始]
Language                                 : English
Service kind                             : Complete Main
Default                                  : Yes
Forced                                   : No
VENDOR_ID                                : [0][0][0][0]
Complexity index                         : 16
Number of dynamic objects                : 15
Bed channel count                        : 1 channel
Bed channel configuration                : LFE
Text #1
ID                                       : 3
Format                                   : UTF-8
Codec ID                                 : S_TEXT/UTF8
Codec ID/Info                            : UTF-8 Plain Text
Duration                                 : 1 h 30 min
Title                                    : 繁体中文
Writing library                          : Lavc60.3.100 srt
Language                                 : Chinese
Default                                  : Yes
Forced                                   : No
Text #2
ID                                       : 4
Format                                   : UTF-8
Codec ID                                 : S_TEXT/UTF8
Codec ID/Info                            : UTF-8 Plain Text
Duration                                 : 1 h 30 min
Title                                    : 简体中文
Writing library                          : Lavc60.3.100 srt
Language                                 : Chinese
Default                                  : No
Forced                                   : No
部分资源为软字幕,移动端推荐播放器:MxPlayer,nPlayer,infuse ,其他播放器请自行尝试。
部分资源为软字幕,电脑端推荐播放器:PotPlayer,完美解码,KMPLAYER,其他播放器请自行尝试。






~~~~~~~~~~~~~~~~~~~~~~~~~~~~~~~~~~~~~~~~~
[2020][欧美][喜剧][WEB-1080P]恋爱保证[中文字幕].Love.Guaranteed.2020.1080p.NF.WEB-DL.x264.DDP5.1- 3.62GB

【文件列表】:


Love.Guaranteed.2020.1080p.NF.WEB-DL.x264.DDP5.1-SONYHD.



【下载地址列表】:


游客
文件下载链接就在这里,在您回复评论成功后才能显示。
请勿回复无意义的灌水内容。


下拉页面到最底部回复或者【点击此处快捷回复】,回复后返回此处即可查看下载链接。
如您没注册本站会员,可以点击注册本站,注册后即可回复下载。



软字幕无法在截图上展现,HDR版本/杜比视界版本截图会出现颜色异常,请使用支持的设备播放!






[img][/img]






[img][/img]

(HDR版本/杜比视界版本,截图会出现颜色异常,请使用支持的设备播放)

小贴士:【影视自媒体解说文案请移步:夏至文案解说网 www.xiazhi.vip

上一篇:[更 早][欧美][剧情][WEB-4K]死亡地带[HDR/杜比视界双版本][中文字幕].The.Dead.Zone.1983.BluRay.2160p.DTS-HDMA.5.1.DoVi.HDR.x2
下一篇:[更 早][欧美][喜剧][BD-1080P]非强力春药[简繁英字幕].Mighty.Aphrodite.1995.Bluray.1080p.DTS-HDMA2.0.x264- 9.22GB
回复

使用道具 举报

您需要登录后才可以回帖 登录 | 立即注册

本版积分规则

Archiver|手机版|小众纪录片影视聚合

GMT+8, 2024-7-22 06:32 , Processed in 0.074137 second(s), 16 queries , Gzip On, Redis On.

Powered by 小众纪录片影视聚合 @2010-2023

Copyright © 2010-2024, https://www.xzjlp.com/.


免责说明:本站所有内容链接、图文介绍等均来自于互联网网友分享,本站仅支持web页面展示和文字介绍,绝不提供在线观看和存储服务,也不参与录制、上传、压片。若本站收录内容无意侵犯贵司版权,请发邮件到【a885185#163.com】联系本站,我们将在第一时间删除侵权内容。谢谢!

快速回复 返回顶部 返回列表