小众纪录片影视聚合

 找回密码
 立即注册
查看: 6|回复: 0

[蓝光电影] [更 早][欧美][喜剧][BD-1080P]非强力春药[简繁英字幕].Mighty.Aphrodite.1995.Bluray.1080p.DTS-HDMA2.0.x264- 9.22GB

[复制链接]

112万

主题

112万

帖子

112万

积分

超级版主

Rank: 8Rank: 8

积分
1128817
发表于 2024-7-9 21:13:23 | 显示全部楼层 |阅读模式


[更 早][欧美][喜剧][BD-1080P]非强力春药[简繁英字幕].Mighty.Aphrodite.1995.Bluray.1080p.DTS-HDMA2.0.x264- 9.22GB

完整标题:非强力春药[简繁英字幕].Mighty.Aphrodite.1995.Bluray.1080p.DTS-HDMA2.0.x264-DreamHD 9.22GB
◎标  题 非强力春药
◎译  名 伟大的阿弗洛狄忒 / 无敌爱美神 / 伟大的阿莫罗狄蒂
◎片  名 Mighty Aphrodite
◎年  代 1995
◎产  地 美国
◎类  别 喜剧 / 爱情 / 奇幻
◎语  言 英语
◎上映日期 1995-09-01(威尼斯电影节) / 1995-10-27(美国)
◎IMDb评分 7/10 (41151人评价)
◎IMDb链接 https://www.imdb.com/title/tt0113819/
◎豆瓣评分 7.7/10 (15451人评价)
◎豆瓣链接 https://movie.douban.com/subject/1296925/
◎片  长 95分钟
◎导  演 伍迪·艾伦 Woody Allen
◎编  剧 伍迪·艾伦 Woody Allen
◎演  员 伍迪·艾伦 Woody Allen
       米拉·索维诺 Mira Sorvino
       海伦娜·伯翰·卡特 Helena Bonham Carter
       奥林匹娅·杜卡基斯 Olympia Dukakis
       Valda Setterfield Valda Setterfield
       罗斯玛丽·墨菲 Rosemary Murphy
       托尼·西里科 Tony Sirico
       唐纳德·赛明顿 Donald Symington
       布鲁斯·威南特 Bruce Winant
       Rawleigh Moreland Rawleigh Moreland
        John D. Bair
       加里·阿尔珀 Gary Alper
       史蒂文·兰达佐 Steven Randazzo
       杰弗里·库兰 Jeffrey Kurland
       保罗·吉亚玛提 Paul Giamatti
       Don Wallace Don Wallace
       Karen Longwell Karen Longwell
       皮特·麦克罗比 Peter McRobbie
       戴维·奥格登·施蒂尔斯 David Ogden Stiers
       F·默里·亚伯拉罕 F. Murray Abraham
       丽萨·维达尔 Lisa Vidal
       杰克·瓦尔登 Jack Warden
       迈克尔·拉帕波特 Michael Rapaport
       彼得·威勒 Peter Weller
       克莱尔·布鲁姆 Claire Bloom
       Pamela Blair Pamela Blair
       Kent Blocher Kent Blocher
       Rene Ceballos Rene Ceballos
       帕蒂卡尔 Patti Karr
       Seth Gertsacov Seth Gertsacov
       Yvette Hawkins Yvette Hawkins
       朱莉·霍尔斯顿 Julie Halston
       达尼埃尔·费兰 Danielle Ferland
       托尼·戴劳 Tony Darrow
       Denise Faye Denise Faye
       凯瑟琳·道尔 Kathleen Doyle
       Scott Fowler Scott Fowler
       Angelo Fraboni Angelo Fraboni
       保罗·赫尔曼 Paul Herman
◎简  介
    Lenny(伍迪·艾伦 Woody Allen 饰)是一个体育新闻记者,他的第二个妻子Amanda(海伦娜·邦汉·卡特 Helena Bonham Carter 饰)则是一个画家。Amanda想要个孩子,于是她不顾Lenny的反对领养了一个小孩,Lenny给他取名为Max。Max非常可爱,也很聪明,在Lenny和Amanda的关爱下茁壮成长,转眼间已经5岁了。然而Lenny却发现他和Amanda之间的激情已经越来越少。强烈的好奇心驱使着Lenny去寻找Max的真正母亲。经过多方打听,他找到了Max的母亲Linda(米拉·索维诺 Mira Sorvino 饰)。此时的Linda是一个演色情片的演员,也是一个妓女。Lenny试图改变Linda的生活,两人经常聚在一起聊天。而另一方面,Amanda也被画廊的合作者Jerry猛烈追求。Linda终于在Lenny的帮助下摆脱了妓女的生活,并和Lenny介绍的男子开始约会。然而有一天,Lenny还是发现了Amanda和Jerry的奸情......                                    饰演Linda的米拉·索维诺凭借此片获得奥斯卡最佳女配角奖。
点击图片可查看大图
软字幕无法在截图上展现,HDR版本/杜比视界版本截图会出现颜色异常,请使用支持的设备播放!
##### MediaInfo ######
General
Unique ID                                : 108361548550430017561294360838788572885 (0x5185ACD47D83599B8E1830BF088B66D5)
Complete name                            : Mighty.Aphrodite.1995.Bluray.1080p.DTS-HDMA2.0.x264-DreamHD.mkv
Duration                                 : 1 h 35 min
Overall bit rate mode                    : Variable
Overall bit rate                         : 13.9 Mb/s
Video
ID                                       : 1
Format                                   : AVC
Format/Info                              : Advanced Video Codec
Format profile                           : [email protected]
Format settings                          : CABAC / 4 Ref Frames
Format settings, CABAC                   : Yes
Format settings, Reference frames        : 4 frames
Codec ID                                 : V_MPEG4/ISO/AVC
Duration                                 : 1 h 35 min
Bit rate                                 : 12.2 Mb/s
Width                                    : 1 920 pixels
Height                                   : 1 080 pixels
Display aspect ratio                     : 16:9
Frame rate mode                          : Constant
Frame rate                               : 23.976 (24000/1001) FPS
Color space                              : YUV
Chroma subsampling                       : 4:2:0
Bit depth                                : 8 bits
Scan type                                : Progressive
Bits/(Pixel*Frame)                       : 0.246
Stream size                              : 8.11 GiB (88%)
Writing library                          : x264 core 164 r3094 bfc87b7
Encoding settings                        : cabac=1 / ref=4 / deblock=1:-3:-3 / analyse=0x3:0x133 / me=umh / subme=11 / psy=1 / psy_rd=1.00:0.00 / mixed_ref=1 / me_range=64 / chroma_me=1 / trellis=2 / 8x8dct=1 / cqm=0 / deadzone=21,11 / fast_pskip=0 / chroma_qp_offset=-2 / threads=34 / lookahead_threads=8 / sliced_threads=0 / nr=0 / decimate=0 / interlaced=0 / bluray_compat=0 / constrained_intra=0 / bframes=12 / b_pyramid=2 / b_adapt=2 / b_bias=0 / direct=3 / weightb=1 / open_gop=0 / weightp=2 / keyint=250 / keyint_min=23 / scenecut=40 / intra_refresh=0 / rc=crf / mbtree=0 / crf=16.0 / qcomp=0.70 / qpmin=0 / qpmax=69 / qpstep=4 / ip_ratio=1.30 / pb_ratio=1.20 / aq=3:0.80
Default                                  : Yes
Forced                                   : No
Color range                              : Limited
Color primaries                          : BT.709
Matrix coefficients                      : BT.709
Audio
ID                                       : 2
ID in the original source medium         : 4352 (0x1100)
Format                                   : DTS XLL
Format/Info                              : Digital Theater Systems
Commercial name                          : DTS-HD Master Audio
Codec ID                                 : A_DTS
Duration                                 : 1 h 35 min
Bit rate mode                            : Variable
Bit rate                                 : 1 557 kb/s
Channel(s)                               : 2 channels
Channel layout                           : L R
Sampling rate                            : 48.0 kHz
Frame rate                               : 93.750 FPS (512 SPF)
Bit depth                                : 16 bits
Compression mode                         : Lossless
Stream size                              : 1.03 GiB (11%)
Title                                    : English
Language                                 : English
Default                                  : Yes
Forced                                   : No
Original source medium                   : Blu-ray
Text #1
ID                                       : 3
ID in the original source medium         : 4608 (0x1200)
Format                                   : PGS
Muxing mode                              : zlib
Codec ID                                 : S_HDMV/PGS
Codec ID/Info                            : Picture based subtitle format used on BDs/HD-DVDs
Duration                                 : 1 h 32 min
Bit rate                                 : 66.7 kb/s
Frame rate                               : 1.016 FPS
Count of elements                        : 5630
Stream size                              : 44.0 MiB (0%)
Title                                    : ENG
Language                                 : English
Default                                  : No
Forced                                   : No
Original source medium                   : Blu-ray
Text #2
ID                                       : 4
ID in the original source medium         : 4609 (0x1201)
Format                                   : PGS
Muxing mode                              : zlib
Codec ID                                 : S_HDMV/PGS
Codec ID/Info                            : Picture based subtitle format used on BDs/HD-DVDs
Duration                                 : 1 h 28 min
Bit rate                                 : 53.0 kb/s
Frame rate                               : 0.651 FPS
Count of elements                        : 3467
Stream size                              : 33.7 MiB (0%)
Title                                    : CHS
Language                                 : Chinese
Default                                  : Yes
Forced                                   : No
Original source medium                   : Blu-ray
Text #3
ID                                       : 5
ID in the original source medium         : 4610 (0x1202)
Format                                   : PGS
Muxing mode                              : zlib
Codec ID                                 : S_HDMV/PGS
Codec ID/Info                            : Picture based subtitle format used on BDs/HD-DVDs
Duration                                 : 1 h 28 min
Bit rate                                 : 59.6 kb/s
Frame rate                               : 0.651 FPS
Count of elements                        : 3467
Stream size                              : 37.8 MiB (0%)
Title                                    : CHT
Language                                 : Chinese
Default                                  : No
Forced                                   : No
Original source medium                   : Blu-ray
Menu
00:00:00.000                             : en:Chapter 01
00:05:37.670                             : en:Chapter 02
00:11:57.633                             : en:Chapter 03
00:17:30.424                             : en:Chapter 04
00:23:36.540                             : en:Chapter 05
00:29:39.694                             : en:Chapter 06
00:37:21.697                             : en:Chapter 07
00:43:00.411                             : en:Chapter 08
00:47:33.100                             : en:Chapter 09
00:53:37.422                             : en:Chapter 10
01:00:36.716                             : en:Chapter 11
01:05:29.342                             : en:Chapter 12
01:10:56.835                             : en:Chapter 13
01:17:19.926                             : en:Chapter 14
01:22:42.540                             : en:Chapter 15
01:27:00.965                             : en:Chapter 16
部分资源为软字幕,移动端推荐播放器:MxPlayer,nPlayer,infuse ,其他播放器请自行尝试。
部分资源为软字幕,电脑端推荐播放器:PotPlayer,完美解码,KMPLAYER,其他播放器请自行尝试。






~~~~~~~~~~~~~~~~~~~~~~~~~~~~~~~~~~~~~~~~~
[更 早][欧美][喜剧][BD-1080P]非强力春药[简繁英字幕].Mighty.Aphrodite.1995.Bluray.1080p.DTS-HDMA2.0.x264- 9.22GB

【文件列表】:


Mighty.Aphrodite.1995.Bluray.1080p.DTS-HDMA2.0.x264-DreamHD.



【下载地址列表】:


游客
文件下载链接就在这里,在您回复评论成功后才能显示。
请勿回复无意义的灌水内容。


下拉页面到最底部回复或者【点击此处快捷回复】,回复后返回此处即可查看下载链接。
如您没注册本站会员,可以点击注册本站,注册后即可回复下载。



软字幕无法在截图上展现,HDR版本/杜比视界版本截图会出现颜色异常,请使用支持的设备播放!






[img][/img]






[img][/img]

(HDR版本/杜比视界版本,截图会出现颜色异常,请使用支持的设备播放)

小贴士:【影视自媒体解说文案请移步:夏至文案解说网 www.xiazhi.vip

上一篇:[2020][欧美][喜剧][WEB-1080P]恋爱保证[中文字幕].Love.Guaranteed.2020.1080p.NF.WEB-DL.x264.DDP5.1- 3.62GB
下一篇:[更 早][欧美][喜剧][BD-1080P]非强力春药[简繁英字幕].Mighty.Aphrodite.1995.Bluray.1080p.DTS-HDMA2.0.x265.10bit- 5
回复

使用道具 举报

您需要登录后才可以回帖 登录 | 立即注册

本版积分规则

Archiver|手机版|小众纪录片影视聚合

GMT+8, 2024-7-17 00:36 , Processed in 0.202634 second(s), 13 queries , Gzip On, Redis On.

Powered by 小众纪录片影视聚合 @2010-2023

Copyright © 2010-2024, https://www.xzjlp.com/.


免责说明:本站所有内容链接、图文介绍等均来自于互联网网友分享,本站仅支持web页面展示和文字介绍,绝不提供在线观看和存储服务,也不参与录制、上传、压片。若本站收录内容无意侵犯贵司版权,请发邮件到【a885185#163.com】联系本站,我们将在第一时间删除侵权内容。谢谢!

快速回复 返回顶部 返回列表