小众纪录片影视聚合

 找回密码
 立即注册
查看: 5|回复: 0

[蓝光电影] [2023][其它][奇幻][WEB-4K]我是船长[简繁英字幕].Io.Capitano.2023.Bluray.2160p.DTS-HDMA5.1.HDR.x265.10bit- 32.

[复制链接]

116万

主题

116万

帖子

116万

积分

超级版主

Rank: 8Rank: 8

积分
1167997
发表于 2024-7-9 21:13:44 | 显示全部楼层 |阅读模式


[2023][其它][奇幻][WEB-4K]我是船长[简繁英字幕].Io.Capitano.2023.Bluray.2160p.DTS-HDMA5.1.HDR.x265.10bit- 32.

完整标题:我是船长[简繁英字幕].Io.Capitano.2023.Bluray.2160p.DTS-HDMA5.1.HDR.x265.10bit-DreamHD 32.37GB
◎标  题 我是船长
◎译  名 Io capitano
◎片  名 Io capitano
◎年  代 2023
◎产  地 意大利 / 比利时 / 法国
◎类  别 奇幻
◎语  言 沃洛夫语 / 阿拉伯语 Arabic
◎上映日期 2023-09-06(威尼斯电影节) / 2023-09-07(意大利)
◎IMDb评分 7.6/10 (3123人评价)
◎IMDb链接 https://www.imdb.com/title/tt14225838/
◎豆瓣评分 6.7/10 (501人评价)
◎豆瓣链接 https://movie.douban.com/subject/35700241/
◎片  长 121分钟
◎导  演 马提欧·加洛尼 Matteo Garrone
◎编  剧 马提欧·加洛尼 Matteo Garrone
       马西莫·高迪奥索 Massimo Gaudioso
       马西莫·切可里尼 Massimo Ceccherini
        Andrea Tagliaferri
        Nicola Di Robilant
        Chiara Leonardi
◎演  员 阿菲·班·巴德拉 Affif Ben Badra
       伊萨卡·萨瓦德戈 Issaka Sawadogo
       塞杜·萨尔 Seydou Sarr
       奥马尔·迪奥 Oumar Diaw
        Bamar Kane
       希奇姆·雅克比 Hichem Yacoubi
       埃里卡公主 Princess Erika
        Joseph Beddelem
        Taha Benaim
        Mariam Kaba
        Didier Njikam
        Flaure B.B. Kabore
        Moustapha Fall
        Doodou Sagna
        Babacar Diop
        Observateur Ebène
        Cheick Ndiaye
        Venus Gueye
        Aly Niang
        Adbellah Elbkiri
◎简  介
    十六岁的少年赛杜,与深爱的母亲和姊妹同住,家乡日子困苦,唯有玩起音乐时的他,眼里才有光。在表哥的怂恿下,他隐瞒母亲,揣着天真热情,以及偷偷打工攒来的现金,踏上前往欧洲大陆的旅途,深信到了那里,就能一展音乐才华,让家人过上更好的生活。从塞内加尔到利比亚,穿越撒哈拉沙漠行至地中海,这一趟未知的旅程,人心比环境更加险恶。在祖灵的冥冥指引下,他们能否抵达梦想的彼岸?
点击图片可查看大图
软字幕无法在截图上展现,HDR版本/杜比视界版本截图会出现颜色异常,请使用支持的设备播放!
##### MediaInfo ######
General
Unique ID                                : 16458645408489761371210014345580700085 (0xC61D1DEA683A32019AC898F2A9EE1B5)
Complete name                            : Io.Capitano.2023.Bluray.2160p.DTS-HDMA5.1.HDR.x265.10bit-DreamHD.mkv
Duration                                 : 2 h 1 min
Overall bit rate mode                    : Variable
Overall bit rate                         : 38.1 Mb/s
Video
ID                                       : 1
Format                                   : HEVC
Format/Info                              : High Efficiency Video Coding
Format profile                           : Main 10@L6@Main
HDR format                               : SMPTE ST 2086, HDR10 compatible
Codec ID                                 : V_MPEGH/ISO/HEVC
Duration                                 : 2 h 1 min
Bit rate                                 : 33.8 Mb/s
Width                                    : 3 840 pixels
Height                                   : 2 074 pixels
Display aspect ratio                     : 1.85:1
Frame rate mode                          : Constant
Frame rate                               : 24.000 FPS
Color space                              : YUV
Chroma subsampling                       : 4:2:0 (Type 2)
Bit depth                                : 10 bits
Bits/(Pixel*Frame)                       : 0.177
Stream size                              : 28.7 GiB (89%)
Writing library                          : x265 3.5+100-3dae0c3cc:[Windows][GCC 12.2.0][64 bit] 10bit
Encoding settings                        : cpuid=1111039 / frame-threads=6 / numa-pools=64,32,0,0 / wpp / no-pmode / no-pme / no-psnr / no-ssim / log-level=2 / input-csp=1 / input-res=3840x2074 / interlace=0 / total-frames=0 / level-idc=0 / high-tier=1 / uhd-bd=0 / ref=6 / no-allow-non-conformance / repeat-headers / annexb / no-aud / no-eob / no-eos / no-hrd / info / hash=0 / temporal-layers=0 / no-open-gop / min-keyint=24 / keyint=250 / gop-lookahead=0 / bframes=14 / b-adapt=2 / b-pyramid / bframe-bias=0 / rc-lookahead=75 / lookahead-slices=8 / scenecut=40 / no-hist-scenecut / radl=0 / no-splice / no-intra-refresh / ctu=32 / min-cu-size=8 / no-rect / no-amp / max-tu-size=32 / tu-inter-depth=1 / tu-intra-depth=1 / limit-tu=0 / rdoq-level=2 / dynamic-rd=0.00 / no-ssim-rd / signhide / no-tskip / nr-intra=0 / nr-inter=0 / no-constrained-intra / no-strong-intra-smoothing / max-merge=3 / limit-refs=1 / no-limit-modes / me=3 / subme=7 / merange=64 / temporal-mvp / no-frame-dup / no-hme / weightp / weightb / no-analyze-src-pics / deblock=0:0 / no-sao / no-sao-non-deblock / rd=4 / selective-sao=0 / no-early-skip / rskip / no-fast-intra / no-tskip-fast / no-cu-lossless / b-intra / no-splitrd-skip / rdpenalty=2 / psy-rd=3.00 / psy-rdoq=4.80 / no-rd-refine / no-lossless / cbqpoffs=0 / crqpoffs=0 / rc=crf / crf=14.6 / qcomp=0.60 / qpstep=4 / stats-write=0 / stats-read=0 / ipratio=1.40 / pbratio=1.30 / aq-mode=1 / aq-strength=1.00 / cutree / zone-count=0 / no-strict-cbr / qg-size=32 / no-rc-grain / qpmax=69 / qpmin=0 / no-const-vbv / sar=0 / overscan=0 / videoformat=5 / range=0 / colorprim=9 / transfer=16 / colormatrix=9 / chromaloc=1 / chromaloc-top=2 / chromaloc-bottom=2 / display-window=0 / master-display=G(8500,39850)B(6550,2300)R(35400,14600)WP(15635,16450)L(10000000,1) / cll=595,306 / min-luma=0 / max-luma=1023 / log2-max-poc-lsb=8 / vui-timing-info / vui-hrd-info / slices=1 / no-opt-qp-pps / no-opt-ref-list-length-pps / no-multi-pass-opt-rps / scenecut-bias=0.05 / no-opt-cu-delta-qp / aq-motion / hdr10 / hdr10-opt / no-dhdr10-opt / no-idr-recovery-sei / analysis-reuse-level=0 / analysis-save-reuse-level=0 / analysis-load-reuse-level=0 / scale-factor=0 / refine-intra=0 / refine-inter=0 / refine-mv=1 / refine-ctu-distortion=0 / no-limit-sao / ctu-info=0 / no-lowpass-dct / refine-analysis-type=0 / copy-pic=1 / max-ausize-factor=1.0 / no-dynamic-refine / no-single-sei / no-hevc-aq / no-svt / no-field / qp-adaptation-range=1.00 / scenecut-aware-qp=0conformance-window-offsets / right=0 / bottom=0 / decoder-max-rate=0 / no-vbv-live-multi-pass / no-mcstf / no-sbrc
Default                                  : Yes
Forced                                   : No
Color range                              : Limited
Color primaries                          : BT.2020
Transfer characteristics                 : PQ
Matrix coefficients                      : BT.2020 non-constant
Mastering display color primaries        : BT.2020
Mastering display luminance              : min: 0.0001 cd/m2, max: 1000 cd/m2
Maximum Content Light Level              : 595 cd/m2
Maximum Frame-Average Light Level        : 306 cd/m2
Audio
ID                                       : 2
ID in the original source medium         : 4352 (0x1100)
Format                                   : DTS XLL
Format/Info                              : Digital Theater Systems
Commercial name                          : DTS-HD Master Audio
Codec ID                                 : A_DTS
Duration                                 : 2 h 1 min
Bit rate mode                            : Variable
Bit rate                                 : 4 235 kb/s
Channel(s)                               : 6 channels
Channel layout                           : C L R Ls Rs LFE
Sampling rate                            : 48.0 kHz
Frame rate                               : 93.750 FPS (512 SPF)
Bit depth                                : 24 bits
Compression mode                         : Lossless
Stream size                              : 3.60 GiB (11%)
Title                                    : Wolof
Language                                 : Wolof
Default                                  : Yes
Forced                                   : No
Original source medium                   : Blu-ray
Text #1
ID                                       : 3
Format                                   : PGS
Muxing mode                              : zlib
Codec ID                                 : S_HDMV/PGS
Codec ID/Info                            : Picture based subtitle format used on BDs/HD-DVDs
Duration                                 : 1 h 52 min
Bit rate                                 : 20.2 kb/s
Frame rate                               : 0.318 FPS
Count of elements                        : 2140
Stream size                              : 16.2 MiB (0%)
Title                                    : CHS
Language                                 : Chinese
Default                                  : Yes
Forced                                   : No
Text #2
ID                                       : 4
Format                                   : PGS
Muxing mode                              : zlib
Codec ID                                 : S_HDMV/PGS
Codec ID/Info                            : Picture based subtitle format used on BDs/HD-DVDs
Duration                                 : 1 h 52 min
Bit rate                                 : 21.1 kb/s
Frame rate                               : 0.318 FPS
Count of elements                        : 2140
Stream size                              : 16.9 MiB (0%)
Title                                    : CHT
Language                                 : Chinese
Default                                  : No
Forced                                   : No
Text #3
ID                                       : 5
Format                                   : PGS
Muxing mode                              : zlib
Codec ID                                 : S_HDMV/PGS
Codec ID/Info                            : Picture based subtitle format used on BDs/HD-DVDs
Duration                                 : 1 h 52 min
Bit rate                                 : 31.6 kb/s
Frame rate                               : 0.318 FPS
Count of elements                        : 2140
Stream size                              : 25.4 MiB (0%)
Title                                    : CHS/ENG
Language                                 : Chinese
Default                                  : No
Forced                                   : No
Text #4
ID                                       : 6
Format                                   : PGS
Muxing mode                              : zlib
Codec ID                                 : S_HDMV/PGS
Codec ID/Info                            : Picture based subtitle format used on BDs/HD-DVDs
Duration                                 : 1 h 52 min
Bit rate                                 : 21.1 kb/s
Frame rate                               : 0.318 FPS
Count of elements                        : 2140
Stream size                              : 16.9 MiB (0%)
Title                                    : CHT/ENG
Language                                 : Chinese
Default                                  : No
Forced                                   : No
Text #5
ID                                       : 7
Format                                   : PGS
Muxing mode                              : zlib
Codec ID                                 : S_HDMV/PGS
Codec ID/Info                            : Picture based subtitle format used on BDs/HD-DVDs
Duration                                 : 1 h 48 min
Bit rate                                 : 19.9 kb/s
Frame rate                               : 0.292 FPS
Count of elements                        : 1900
Stream size                              : 15.4 MiB (0%)
Title                                    : ENG
Language                                 : English
Default                                  : No
Forced                                   : No
Menu
00:00:00.000                             : en:Chapter 01
00:10:21.791                             : en:Chapter 02
00:18:21.500                             : en:Chapter 03
00:30:23.708                             : en:Chapter 04
00:39:05.291                             : en:Chapter 05
00:48:39.833                             : en:Chapter 06
00:57:19.708                             : en:Chapter 07
01:12:43.958                             : en:Chapter 08
01:20:14.166                             : en:Chapter 09
01:30:18.916                             : en:Chapter 10
01:41:54.666                             : en:Chapter 11
01:49:33.791                             : en:Chapter 12
部分资源为软字幕,移动端推荐播放器:MxPlayer,nPlayer,infuse ,其他播放器请自行尝试。
部分资源为软字幕,电脑端推荐播放器:PotPlayer,完美解码,KMPLAYER,其他播放器请自行尝试。






~~~~~~~~~~~~~~~~~~~~~~~~~~~~~~~~~~~~~~~~~
[2023][其它][奇幻][WEB-4K]我是船长[简繁英字幕].Io.Capitano.2023.Bluray.2160p.DTS-HDMA5.1.HDR.x265.10bit- 32.

【文件列表】:


Io.Capitano.2023.Bluray.2160p.DTS-HDMA5.1.HDR.x265.10bit-DreamHD.



【下载地址列表】:


游客
文件下载链接就在这里,在您回复评论成功后才能显示。
请勿回复无意义的灌水内容。


下拉页面到最底部回复或者【点击此处快捷回复】,回复后返回此处即可查看下载链接。
如您没注册本站会员,可以点击注册本站,注册后即可回复下载。



软字幕无法在截图上展现,HDR版本/杜比视界版本截图会出现颜色异常,请使用支持的设备播放!






[img][/img]






[img][/img]

(HDR版本/杜比视界版本,截图会出现颜色异常,请使用支持的设备播放)

小贴士:【影视自媒体解说文案请移步:夏至文案解说网 www.xiazhi.vip

上一篇:[2023][其它][剧情][WEB-4K]下一球成名[无字片源].Next.Goal.Wins.2023.2160p.iTunes.WEB-DL.DD.5.1.HDR10/.H.265-
下一篇:[合 集][日本][合集][BD-1080P]银河英雄传说 Die Neue These 星乱 第1章[共12部合集][中文字幕].2019.1080p.BluRay.x264.DTS.3.1-
回复

使用道具 举报

您需要登录后才可以回帖 登录 | 立即注册

本版积分规则

Archiver|手机版|小众纪录片影视聚合

GMT+8, 2024-7-24 23:33 , Processed in 0.086961 second(s), 13 queries , Gzip On, Redis On.

Powered by 小众纪录片影视聚合 @2010-2023

Copyright © 2010-2024, https://www.xzjlp.com/.


免责说明:本站所有内容链接、图文介绍等均来自于互联网网友分享,本站仅支持web页面展示和文字介绍,绝不提供在线观看和存储服务,也不参与录制、上传、压片。若本站收录内容无意侵犯贵司版权,请发邮件到【a885185#163.com】联系本站,我们将在第一时间删除侵权内容。谢谢!

快速回复 返回顶部 返回列表