小众纪录片影视聚合

 找回密码
 立即注册
查看: 11|回复: 0

[蓝光电影] [合 集][日本][合集][BD-1080P]银河英雄传说 Die Neue These 星乱 第1章[共12部合集][中文字幕].2019.1080p.BluRay.x264.DTS.3.1-

[复制链接]

112万

主题

112万

帖子

112万

积分

超级版主

Rank: 8Rank: 8

积分
1128817
发表于 2024-7-9 21:13:48 | 显示全部楼层 |阅读模式


[合 集][日本][合集][BD-1080P]银河英雄传说 Die Neue These 星乱 第1章[共12部合集][中文字幕].2019.1080p.BluRay.x264.DTS.3.1-

完整标题:银河英雄传说 Die Neue These 星乱 第1章[共12部合集][中文字幕].2019.1080p.BluRay.x264.DTS.3.1-SONYHD 17.38GB
◎标  题 银河英雄传说 Die Neue These 星乱 第1章
◎片  名 銀河英雄伝説 Die Neue These 星乱 第1章
◎年  代 2019
◎产  地 日本
◎类  别 动画
◎语  言 日语
◎上映日期 2019-09-27(日本)
◎IMDb评分 7.7/10 (135人评价)
◎IMDb链接 https://www.imdb.com/title/tt7401028/
◎豆瓣评分 9.1/10 (1728人评价)
◎豆瓣链接 https://movie.douban.com/subject/27149654/
◎片  长 96分钟
◎导  演 多田俊介 Shunsuke Tada
       小村方宏治 Kôji Komurakata
◎编  剧 田中芳树 Yoshiki Tanaka
       高木登 Noboru Takagi
◎演  员 宫野真守 Mamoru Miyano
       铃村健一 Kenichi Suzumura
       梅原裕一郎 Yuichiro Umehara
       梶裕贵 Yûki Kaji
       远藤绫 Aya Endô
       诹访部顺一 Junichi Suwabe
       中村悠一 Yuuichi Nakamura
       小野大辅 Daisuke Ono
       三木真一郎 Shinichirô Miki
       石川界人 Kaito Ishikawa
       铃木达央 Tatsuhisa Suzuki
       川岛得爱 Tokuyoshi Kawashima
       花泽香菜 Kana Hanazawa
       古谷彻 Tôru Furuya
       二又一成 Issei Futamata
       下山吉光 Yoshimitsu Shimoyama
       花轮英司 Eiji Hanawa
       岩崎征实 Iwasaki Masami
       齐藤次郎 Saitou Jirou
       菊池正美 Masami Kikuchi
       稻田彻 Tetsu Inada
       平川大辅 Daisuke Hirakawa
       福西胜也 Fukunishi Masaya
       夏吉优子 Natsuyoshi Yuko
       水内清光 Kiyomitsu Mizuuchi
       荻野晴朗 Ogino Seirou
       星野充昭 Mitsuaki Hoshino
       江川央生 Hisao Egawa
       野岛裕史 Hirofumi Nojima
       安元洋贵 Hiroki Yasumoto
       大场真人 Mahito Ôba
       鸟海浩辅 Kosuke Toriumi
       大塚芳忠 Hôchû Ôtsuka
       高桥研二 Takahashi Kenji
◎简  介
    银河英雄传说 Die Neue These继《邂逅》后推出新一季动漫《星乱》,《星乱》也有12话内容,豆瓣以3部剧场版形式展现,实际上三部剧场版就是12集的整合,一部剧场版相当于4集TV
合集文件列表:
1.Legend.Of.The.Galactic.Heroes.Die.Neue.These.Stellar.War.S02E01.2019.1080p.BluRay.x264.DTS.3.1-SONYHD.mkv 1.54GB
2.Legend.Of.The.Galactic.Heroes.Die.Neue.These.Stellar.War.S02E02.2019.1080p.BluRay.x264.DTS.3.1-SONYHD.mkv 1.31GB
3.Legend.Of.The.Galactic.Heroes.Die.Neue.These.Stellar.War.S02E03.2019.1080p.BluRay.x264.DTS.3.1-SONYHD.mkv 1.37GB
4.Legend.Of.The.Galactic.Heroes.Die.Neue.These.Stellar.War.S02E04.2019.1080p.BluRay.x264.DTS.3.1-SONYHD.mkv 1.26GB
5.Legend.Of.The.Galactic.Heroes.Die.Neue.These.Stellar.War.S02E05.2019.1080p.BluRay.x264.DTS.3.1-SONYHD.mkv 1.38GB
6.Legend.Of.The.Galactic.Heroes.Die.Neue.These.Stellar.War.S02E06.2019.1080p.BluRay.x264.DTS.3.1-SONYHD.mkv 1.47GB
7.Legend.Of.The.Galactic.Heroes.Die.Neue.These.Stellar.War.S02E07.2019.1080p.BluRay.x264.DTS.3.1-SONYHD.mkv 1.42GB
8.Legend.Of.The.Galactic.Heroes.Die.Neue.These.Stellar.War.S02E08.2019.1080p.BluRay.x264.DTS.3.1-SONYHD.mkv 1.47GB
9.Legend.Of.The.Galactic.Heroes.Die.Neue.These.Stellar.War.S02E09.2019.1080p.BluRay.x264.DTS.3.1-SONYHD.mkv 1.64GB
10.Legend.Of.The.Galactic.Heroes.Die.Neue.These.Stellar.War.S02E10.2019.1080p.BluRay.x264.DTS.3.1-SONYHD.mkv 1.38GB
11.Legend.Of.The.Galactic.Heroes.Die.Neue.These.Stellar.War.S02E11.2019.1080p.BluRay.x264.DTS.3.1-SONYHD.mkv 1.61GB
12.Legend.Of.The.Galactic.Heroes.Die.Neue.These.Stellar.War.S02E12.2019.1080p.BluRay.x264.DTS.3.1-SONYHD.mkv 1.55GB
##### MediaInfo ######
General
Unique ID                                : 148566693197557338787154923608236543826 (0x6FC4E7814DE535950A65582008EECF52)
Complete name                            : Legend.Of.The.Galactic.Heroes.Die.Neue.These.Stellar.War.S02E01.2019.1080p.BluRay.x264.DTS.3.1-SONYHD.mkv
Duration                                 : 25 min 1 s
Overall bit rate                         : 8 796 kb/s
Video
ID                                       : 1
Format                                   : AVC
Format/Info                              : Advanced Video Codec
Format profile                           : [email protected]
Format settings                          : CABAC / 4 Ref Frames
Format settings, CABAC                   : Yes
Format settings, Reference frames        : 4 frames
Codec ID                                 : V_MPEG4/ISO/AVC
Duration                                 : 25 min 1 s
Bit rate                                 : 7 073 kb/s
Width                                    : 1 920 pixels
Height                                   : 1 080 pixels
Display aspect ratio                     : 16:9
Frame rate mode                          : Constant
Frame rate                               : 23.976 (24000/1001) FPS
Color space                              : YUV
Chroma subsampling                       : 4:2:0
Bit depth                                : 8 bits
Scan type                                : Progressive
Bits/(Pixel*Frame)                       : 0.142
Stream size                              : 1.24 GiB (80%)
Writing library                          : x264 core 164 r3107+55M 1028c06 t_mod_New [(8 & 10)-bit@all X86_64]
Encoding settings                        : cabac=1 / ref=4 / deblock=1:-3:-3 / analyse=0x3:0x133 / me=umh / subme=11 / psy=1 / fade_compensate=0.00 / psy_rd=0.50:0.00 / mixed_ref=1 / me_range=48 / chroma_me=1 / trellis=2 / 8x8dct=1 / cqm=0 / deadzone=21,11 / fast_pskip=0 / chroma_qp_offset=-3 / threads=24 / lookahead_threads=6 / sliced_threads=0 / nr=0 / decimate=0 / interlaced=0 / bluray_compat=0 / constrained_intra=0 / fgo=0 / bframes=11 / b_pyramid=2 / b_adapt=2 / b_bias=0 / direct=3 / weightb=1 / open_gop=0 / weightp=2 / keyint=240 / keyint_min=1 / scenecut=40 / intra_refresh=0 / rc_lookahead=72 / rc=crf / mbtree=0 / crf=19.0000 / qcomp=0.70 / qpmin=0:0:0 / qpmax=69:69:69 / qpstep=4 / vbv_maxrate=62500 / vbv_bufsize=78125 / crf_max=0.0 / nal_hrd=none / filler=0 / ip_ratio=1.20 / pb_ratio=1.10 / aq=3:0.70 / aq-sensitivity=10.00 / aq-factor=1.00:1.00:1.00 / aq2=0 / aq3=0
Default                                  : Yes
Forced                                   : No
Audio
ID                                       : 2
ID in the original source medium         : 4352 (0x1100)
Format                                   : DTS
Format/Info                              : Digital Theater Systems
Codec ID                                 : A_DTS
Duration                                 : 25 min 1 s
Bit rate mode                            : Constant
Bit rate                                 : 1 509 kb/s
Channel(s)                               : 4 channels
Channel layout                           : C L R LFE
Sampling rate                            : 48.0 kHz
Frame rate                               : 93.750 FPS (512 SPF)
Bit depth                                : 16 bits
Compression mode                         : Lossy
Stream size                              : 270 MiB (17%)
Language                                 : Japanese
Default                                  : Yes
Forced                                   : No
Original source medium                   : Blu-ray
Text #1
ID                                       : 3
ID in the original source medium         : 4608 (0x1200)
Format                                   : PGS
Muxing mode                              : zlib
Codec ID                                 : S_HDMV/PGS
Codec ID/Info                            : Picture based subtitle format used on BDs/HD-DVDs
Duration                                 : 24 min 59 s
Bit rate                                 : 207 kb/s
Frame rate                               : 0.882 FPS
Count of elements                        : 1323
Stream size                              : 37.0 MiB (2%)
Title                                    : chs
Language                                 : Chinese
Default                                  : Yes
Forced                                   : No
Original source medium                   : Blu-ray
Text #2
ID                                       : 4
ID in the original source medium         : 4609 (0x1201)
Format                                   : PGS
Muxing mode                              : zlib
Codec ID                                 : S_HDMV/PGS
Codec ID/Info                            : Picture based subtitle format used on BDs/HD-DVDs
Duration                                 : 24 min 59 s
Bit rate                                 : 209 kb/s
Frame rate                               : 0.882 FPS
Count of elements                        : 1323
Stream size                              : 37.3 MiB (2%)
Title                                    : cht
Language                                 : Chinese
Default                                  : No
Forced                                   : No
Original source medium                   : Blu-ray
Menu
00:00:00.000                             : ja:章节 01
00:00:38.038                             : ja:章节 02
00:02:08.002                             : ja:章节 03
00:14:46.051                             : ja:章节 04
00:23:20.107                             : ja:章节 05
00:24:50.071                             : ja:章节 06
部分资源为软字幕,移动端推荐播放器:MxPlayer,nPlayer,infuse ,其他播放器请自行尝试。
部分资源为软字幕,电脑端推荐播放器:PotPlayer,完美解码,KMPLAYER,其他播放器请自行尝试。






~~~~~~~~~~~~~~~~~~~~~~~~~~~~~~~~~~~~~~~~~
[合 集][日本][合集][BD-1080P]银河英雄传说 Die Neue These 星乱 第1章[共12部合集][中文字幕].2019.1080p.BluRay.x264.DTS.3.1-

【文件列表】:


2019.1080p.BluRay.x264.DTS.3.1-SONYHD.



【下载地址列表】:


游客
文件下载链接就在这里,在您回复评论成功后才能显示。
请勿回复无意义的灌水内容。


下拉页面到最底部回复或者【点击此处快捷回复】,回复后返回此处即可查看下载链接。
如您没注册本站会员,可以点击注册本站,注册后即可回复下载。



软字幕无法在截图上展现,HDR版本/杜比视界版本截图会出现颜色异常,请使用支持的设备播放!






[img][/img]






[img][/img]

(HDR版本/杜比视界版本,截图会出现颜色异常,请使用支持的设备播放)

小贴士:【影视自媒体解说文案请移步:夏至文案解说网 www.xiazhi.vip

上一篇:[2023][其它][奇幻][WEB-4K]我是船长[简繁英字幕].Io.Capitano.2023.Bluray.2160p.DTS-HDMA5.1.HDR.x265.10bit- 32.
下一篇:[2019][日本][动画][BD-1080P]银河英雄传说 Die Neue These 星乱 第1章[中文字幕].2019.1080p.BluRay.x265.10bit.DTS.3.1- 8
回复

使用道具 举报

您需要登录后才可以回帖 登录 | 立即注册

本版积分规则

Archiver|手机版|小众纪录片影视聚合

GMT+8, 2024-7-17 00:42 , Processed in 0.139049 second(s), 13 queries , Gzip On, Redis On.

Powered by 小众纪录片影视聚合 @2010-2023

Copyright © 2010-2024, https://www.xzjlp.com/.


免责说明:本站所有内容链接、图文介绍等均来自于互联网网友分享,本站仅支持web页面展示和文字介绍,绝不提供在线观看和存储服务,也不参与录制、上传、压片。若本站收录内容无意侵犯贵司版权,请发邮件到【a885185#163.com】联系本站,我们将在第一时间删除侵权内容。谢谢!

快速回复 返回顶部 返回列表