小众纪录片影视聚合

 找回密码
 立即注册
查看: 7|回复: 0

[蓝光电影] [更 早][韩国][剧情][BD-1080P]我的野蛮女友[中文字幕/特效字幕].My.Sassy.Girl.2001.Bluray.1080p.AAC2.0.x264- 4.02GB

[复制链接]

116万

主题

116万

帖子

116万

积分

超级版主

Rank: 8Rank: 8

积分
1167997
发表于 2024-7-9 21:14:04 | 显示全部楼层 |阅读模式


[更 早][韩国][剧情][BD-1080P]我的野蛮女友[中文字幕/特效字幕].My.Sassy.Girl.2001.Bluray.1080p.AAC2.0.x264- 4.02GB

完整标题:我的野蛮女友[中文字幕/特效字幕].My.Sassy.Girl.2001.Bluray.1080p.AAC2.0.x264-DreamHD 4.02GB
◎标  题 我的野蛮女友
◎译  名 我的淘气女友 / 猎奇女友 / My Sassy Girl
◎片  名 엽기적인 그녀
◎年  代 2001
◎产  地 韩国
◎类  别 剧情 / 喜剧 / 爱情
◎语  言 韩语 / 英语
◎上映日期 2001-07-27(韩国)
◎IMDb评分 8/10 (50007人评价)
◎IMDb链接 https://www.imdb.com/title/tt0293715/
◎豆瓣评分 8.3/10 (455561人评价)
◎豆瓣链接 https://movie.douban.com/subject/1292286/
◎片  长 123分钟(韩国) / 137分钟(导演剪辑版)
◎导  演 郭在容 Jae-young Kwak
◎编  剧 金浩植 Ho-sik Kim
       郭在容 Jae-young Kwak
◎演  员 车太贤 Tae-hyun Cha
       全智贤 Gianna Jun
       金仁文 In-mun Kim
       宋玉淑 Wok-suk Song
       韩振熙 Jin-hie Han
       玄淑熙 Sook-hee Hyun
       金一宇 Il-woo Kim
       徐东元 Dong-won Seo
       金敏载 Kim Min-jae
       李在浩 Jae-ho Lee
       朴俊英 Joon-yeong Park
       玄哲浩 Cheol-ho Hyeon
       赵庆勋 Kyeong-hun Jo
       孙光业 Kwang-up Son
       李正学 Jeong-hak Lee
       陈泰贤 Zin Tae Hyun
       金哲秀 Cheol-Soo Kim
       李无影 Mu-yeong Lee
       任豪 Ho Lim
       郭在容 Jae-young Kwak
       裴长秀 Jang-su Bae
       金东哲 Dong-cheol Kim
       郑忠焕 Jun-hwan Jeong
       曹善默 Sun-mook Jo
       李恩静 Eun-jeong Lee
       韩在民 Jae-min Han
       朴胜裴 Seung-Bae Park
       任正秀 Jeong-Soo Yim
       文紫英 Ja-Yeong Moon
       张秀英 Soo-young Jang
       艺智苑 Ji-won Ye
       梁金锡 Geum-Seok Yang
       柳淳哲 Sun-cheol Yu
◎简  介
    牵牛(车太贤饰)第一次与她(全智贤饰)邂逅,就毫无浪漫感可言。在地铁上她就语出惊人,喝的醉醺醺的她大声训斥不自觉给老人让座的人,吐完之后就软趴趴地倒了下来。善良的牵牛上前接住,于是就只好背着她到旅馆投宿了。但是好心不一定有好报,牵牛正在好好洗澡时就被冲进来的警察带走了。                                    然而这两个人却从此开始约会了。她很霸道很任性,然而当她用那张可爱的面孔对着你笑时,你也忍不住心软。于是牵牛也心甘情愿地被她折磨。渐渐的,牵牛感觉到她的内心受伤了,他用尽全力去呵护去保护,她仍然缺乏安全感。虽然在一起很快乐也很感动,她却仍然提出了一个难以接受的约定:让我们先分开吧……
点击图片可查看大图
软字幕无法在截图上展现,HDR版本/杜比视界版本截图会出现颜色异常,请使用支持的设备播放!
##### MediaInfo ######
General
Complete name                            : My.Sassy.Girl.2001.Bluray.1080p.AAC2.0.x264-DreamHD.mp4
Duration                                 : 2 h 17 min
Overall bit rate                         : 4 201 kb/s
Video
ID                                       : 1
Format                                   : AVC
Format/Info                              : Advanced Video Codec
Format profile                           : [email protected]
Format settings                          : CABAC / 4 Ref Frames
Format settings, CABAC                   : Yes
Format settings, Reference frames        : 4 frames
Codec ID                                 : avc1
Codec ID/Info                            : Advanced Video Coding
Duration                                 : 2 h 17 min
Bit rate                                 : 3 999 kb/s
Width                                    : 1 920 pixels
Height                                   : 1 080 pixels
Display aspect ratio                     : 16:9
Frame rate mode                          : Variable
Frame rate                               : 23.976 (24000/1001) FPS
Minimum frame rate                       : 23.974 FPS
Maximum frame rate                       : 23.981 FPS
Color space                              : YUV
Chroma subsampling                       : 4:2:0
Bit depth                                : 8 bits
Scan type                                : Progressive
Bits/(Pixel*Frame)                       : 0.080
Stream size                              : 3.83 GiB (95%)
Writing library                          : x264 core 164 r3100 ed0f7a6
Encoding settings                        : cabac=1 / ref=4 / deblock=1:0:0 / analyse=0x1:0x111 / me=hex / subme=8 / psy=1 / psy_rd=1.00:0.00 / mixed_ref=1 / me_range=16 / chroma_me=1 / trellis=2 / 8x8dct=0 / cqm=0 / deadzone=21,11 / fast_pskip=1 / chroma_qp_offset=-2 / threads=34 / lookahead_threads=5 / sliced_threads=0 / nr=0 / decimate=1 / interlaced=0 / bluray_compat=0 / constrained_intra=0 / bframes=3 / b_pyramid=2 / b_adapt=1 / b_bias=0 / direct=3 / weightb=1 / open_gop=0 / weightp=2 / keyint=240 / keyint_min=24 / scenecut=40 / intra_refresh=0 / rc_lookahead=50 / rc=2pass / mbtree=1 / bitrate=4000 / ratetol=1.0 / qcomp=0.60 / qpmin=0 / qpmax=69 / qpstep=4 / cplxblur=20.0 / qblur=0.5 / vbv_maxrate=50000 / vbv_bufsize=62500 / nal_hrd=none / filler=0 / ip_ratio=1.40 / aq=1:1.00
Encoded date                             : UTC 2024-01-18 12:31:58
Tagged date                              : UTC 2024-01-18 12:31:58
Color range                              : Limited
Color primaries                          : BT.709
Transfer characteristics                 : BT.709
Matrix coefficients                      : BT.709
Menus                                    : 3
mdhd_Duration                            : 8221213
Codec configuration box                  : avcC
Audio
ID                                       : 2
Format                                   : AAC LC
Format/Info                              : Advanced Audio Codec Low Complexity
Codec ID                                 : mp4a-40-2
Duration                                 : 2 h 17 min
Source duration                          : 2 h 17 min
Bit rate mode                            : Constant
Bit rate                                 : 192 kb/s
Channel(s)                               : 2 channels
Channel layout                           : L R
Sampling rate                            : 48.0 kHz
Frame rate                               : 46.875 FPS (1024 SPF)
Compression mode                         : Lossy
Stream size                              : 190 MiB (5%)
Source stream size                       : 190 MiB (5%)
Title                                    : 环绕声 5.1
Language                                 : Chinese
Default                                  : Yes
Alternate group                          : 1
Encoded date                             : UTC 2024-01-18 12:31:58
Tagged date                              : UTC 2024-01-18 12:31:58
Menus                                    : 3
Menu
ID                                       : 3
Format                                   : Timed Text
Codec ID                                 : text
Duration                                 : 2 h 17 min
Language                                 : English
Encoded date                             : UTC 2024-01-18 12:31:58
Tagged date                              : UTC 2024-01-18 12:31:58
Bit rate mode                            : CBR
Menu For                                 : 1,2
00:00:00.000                             : 章节 01
00:02:35.072                             : 章节 02
00:04:07.998                             : 章节 03
00:04:58.215                             : 章节 04
00:09:41.790                             : 章节 05
00:13:57.378                             : 章节 06
00:18:31.569                             : 章节 07
00:20:56.922                             : 章节 08
00:24:11.116                             : 章节 09
00:28:14.943                             : 章节 10
00:32:59.769                             : 章节 11
00:36:36.403                             : 章节 12
00:39:34.497                             : 章节 13
00:43:45.248                             : 章节 14
00:46:17.024                             : 章节 15
00:49:05.276                             : 章节 16
00:54:32.227                             : 章节 17
00:57:16.475                             : 章节 18
01:06:23.605                             : 章节 19
01:10:36.899                             : 章节 20
01:12:55.246                             : 章节 21
01:16:31.087                             : 章节 22
01:20:29.867                             : 章节 23
01:22:28.402                             : 章节 24
01:26:30.686                             : 章节 25
01:28:49.241                             : 章节 26
01:36:30.118                             : 章节 27
01:41:15.027                             : 章节 28
01:49:58.092                             : 章节 29
01:54:05.505                             : 章节 30
01:58:08.873                             : 章节 31
02:00:15.792                             : 章节 32
02:04:46.396                             : 章节 33
02:09:29.136                             : 章节 34
Bit rate mode                            : Constant
部分资源为软字幕,移动端推荐播放器:MxPlayer,nPlayer,infuse ,其他播放器请自行尝试。
部分资源为软字幕,电脑端推荐播放器:PotPlayer,完美解码,KMPLAYER,其他播放器请自行尝试。






~~~~~~~~~~~~~~~~~~~~~~~~~~~~~~~~~~~~~~~~~
[更 早][韩国][剧情][BD-1080P]我的野蛮女友[中文字幕/特效字幕].My.Sassy.Girl.2001.Bluray.1080p.AAC2.0.x264- 4.02GB

【文件列表】:


My.Sassy.Girl.2001.Bluray.1080p.AAC2.0.x264-DreamHD.



【下载地址列表】:


游客
文件下载链接就在这里,在您回复评论成功后才能显示。
请勿回复无意义的灌水内容。


下拉页面到最底部回复或者【点击此处快捷回复】,回复后返回此处即可查看下载链接。
如您没注册本站会员,可以点击注册本站,注册后即可回复下载。



软字幕无法在截图上展现,HDR版本/杜比视界版本截图会出现颜色异常,请使用支持的设备播放!






[img][/img]






[img][/img]

(HDR版本/杜比视界版本,截图会出现颜色异常,请使用支持的设备播放)

小贴士:【影视自媒体解说文案请移步:夏至文案解说网 www.xiazhi.vip

上一篇:[更 早][韩国][剧情][BD-1080P]我的野蛮女友[国韩多音轨/中文字幕/特效字幕].My.Sassy.Girl.2001.Bluray.1080p.DTS-HDMA5.1.x264-
下一篇:[更 早][欧美][剧情][WEB-4K]光荣之路[HDR/杜比视界双版本][简繁英字幕].Paths.of.Glory.1957.2160p.UHD.BluRay.x265.10bit.DV.DTS-
回复

使用道具 举报

您需要登录后才可以回帖 登录 | 立即注册

本版积分规则

Archiver|手机版|小众纪录片影视聚合

GMT+8, 2024-7-25 01:59 , Processed in 0.069944 second(s), 13 queries , Gzip On, Redis On.

Powered by 小众纪录片影视聚合 @2010-2023

Copyright © 2010-2024, https://www.xzjlp.com/.


免责说明:本站所有内容链接、图文介绍等均来自于互联网网友分享,本站仅支持web页面展示和文字介绍,绝不提供在线观看和存储服务,也不参与录制、上传、压片。若本站收录内容无意侵犯贵司版权,请发邮件到【a885185#163.com】联系本站,我们将在第一时间删除侵权内容。谢谢!

快速回复 返回顶部 返回列表