小众纪录片影视聚合

 找回密码
 立即注册
查看: 7|回复: 0

[蓝光电影] [更 早][欧美][剧情][WEB-4K]光荣之路[HDR/杜比视界双版本][简繁英字幕].Paths.of.Glory.1957.2160p.UHD.BluRay.x265.10bit.DV.DTS-

[复制链接]

110万

主题

110万

帖子

110万

积分

超级版主

Rank: 8Rank: 8

积分
1103006
发表于 4 天前 | 显示全部楼层 |阅读模式


[更 早][欧美][剧情][WEB-4K]光荣之路[HDR/杜比视界双版本][简繁英字幕].Paths.of.Glory.1957.2160p.UHD.BluRay.x265.10bit.DV.DTS-

完整标题:光荣之路[HDR/杜比视界双版本][简繁英字幕].Paths.of.Glory.1957.2160p.UHD.BluRay.x265.10bit.DV.DTS-HD.MA.2.0-SONYHD 16.22GB
◎标  题 光荣之路
◎片  名 Paths of Glory
◎年  代 1957
◎产  地 美国
◎类  别 剧情 / 战争
◎语  言 英语 / 德语 / 拉丁语
◎上映日期 1957-12-20(英国) / 1957-12-25(美国)
◎IMDb评分 8.4/10 (208622人评价)
◎IMDb链接 https://www.imdb.com/title/tt0050825/
◎豆瓣评分 9.1/10 (55671人评价)
◎豆瓣链接 https://movie.douban.com/subject/1292969/
◎片  长 88分钟
◎导  演 斯坦利·库布里克 Stanley Kubrick
◎编  剧 斯坦利·库布里克 Stanley Kubrick
       卡尔德·威灵汉姆 Calder Willingham
       吉姆·汤普森 Jim Thompson
◎演  员 柯克·道格拉斯 Kirk Douglas
       拉尔夫·米克 Ralph Meeker
       阿道夫·门吉欧 Adolphe Menjou
       乔治·麦克雷迪 George Macready
       韦恩·莫瑞斯 Wayne Morris
       理查德·安德森 Richard Anderson
       乔·托克尔 Joe Turkel
       克里斯蒂安妮·库布里克 Christiane Kubrick
       Jerry Hausner Jerry Hausner
       彼得·卡佩尔 Peter Capell
       埃米尔·迈耶 Emile Meyer
       伯特·弗里德 Bert Freed
       Kem Dibbs Kem Dibbs
       蒂莫西·凯瑞 Timothy Carey
       Paul Bös Paul Bös
       赫伯特埃利斯 Herbert Ellis
       詹姆斯·B·哈里斯 James B. Harris
◎简  介
    1916年,第一次世界大战期间的法国,德法两军的战争如火如荼。值此关键时刻,法国陆军将军布洛拉德(Adolphe Menjou 饰)向陆军上尉达克斯(柯克·道格拉斯 Kirk Douglas 饰)率领的部队下了一道命令:不惜一切代价攻下德军占领的安特山。军令如山,即使前方刀山火海,战士们仍拼死向前冲去。结局可想而知,在敌人密集的炮火下,法军冲锋失败,伤亡惨重。为了掩盖自己的指挥失误,布洛拉德抓捕三名无辜士兵作代罪羔羊,以临阵脱逃等罪名将他们判处死刑。为了士兵的利益,达克斯上尉奋力争取,却在这一过程中渐渐看清军官和战争的丑恶……                                    本片根据汉弗雷·科比(Humphrey Cobb)1935年的小说《光荣之路》改编荣获1959年意大利国家影评人协会银带奖最佳外语片导演奖、1958年芬兰影艺学院奖最佳导演奖。##### MediaInfo ######
General
Unique ID                                : 44906495316899568650459001976651888372 (0x21C8AD28BC62A7617063A8CB2371B6F4)
Complete name                            : Paths.of.Glory.1957.2160p.UHD.BluRay.x265.10bit.DV.DTS-HD.MA.2.0-SONYHD.mkv
Duration                                 : 1 h 27 min
Overall bit rate mode                    : Variable
Overall bit rate                         : 26.6 Mb/s
Video
ID                                       : 1
Format                                   : HEVC
Format/Info                              : High Efficiency Video Coding
Format profile                           : Main [email protected]@High
HDR format                               : Dolby Vision, Version 1.0, dvhe.08.06, BL+RPU, HDR10 compatible / SMPTE ST 2086, HDR10 compatible
Codec ID                                 : V_MPEGH/ISO/HEVC
Duration                                 : 1 h 27 min
Bit rate                                 : 24.5 Mb/s
Width                                    : 3 600 pixels
Height                                   : 2 160 pixels
Display aspect ratio                     : 5:3
Frame rate mode                          : Constant
Frame rate                               : 24.000 FPS
Color space                              : YUV
Chroma subsampling                       : 4:2:0 (Type 2)
Bit depth                                : 10 bits
Bits/(Pixel*Frame)                       : 0.132
Stream size                              : 15.0 GiB (92%)
Writing library                          : x265 3.5g2b25c9ba0+45:[Windows][MSVC 1926][64 bit] Yuuki 10bit+8bit+12bit
Encoding settings                        : rc=crf / crf=23.3100 / qcomp=0.60 / qpstep=4 / stats-write=0 / stats-read=0 / vbv-maxrate=160000 / vbv-bufsize=160000 / vbv-init=0.9 / min-vbv-fullness=50.0 / max-vbv-fullness=80.0 / crf-max=0.0 / crf-min=0.0 / no-lossless / no-cu-lossless / aq-mode=3 / aq-strength=0.70 / cbqpoffs=0 / crqpoffs=0 / ipratio=1.40 / pbratio=1.30 / psy-rd=2.00 / psy-rdoq=2.00 / deblock=-3:-3 / ref=5 / limit-refs=1 / no-limit-modes / bframes=11 / b-adapt=2 / bframe-bias=0 / b-pyramid / b-intra / weightp / weightb / min-keyint=1 / max-keyint=240 / rc-lookahead=72 / gop-lookahead=0 / scenecut=40 / hist-scenecut=0 / radl=0 / max-cu-size=64 / min-cu-size=8 / me=3 / subme=6 / merange=48 / rdoq-level=2 / rd=4 / rdpenalty=0 / dynamic-rd=0.00 / no-rd-refine / ----- / no-cutree / no-sao / no-rect / no-amp / no-open-gop / wpp / no-pmode / no-pme / no-psnr / no-ssim / nr-intra=0 / nr-inter=0 / no-constrained-intra / no-strong-intra-smoothing / max-tu-size=32 / tu-inter-depth=4 / tu-intra-depth=4 / limit-tu=0 / qg-size=32 / qpmax=69 / qpmin=0 / ----- / cpuid=1111039 / frame-threads=4 / numa-pools=+ / log-level=2 / input-csp=1 / input-res=3600x2160 / interlace=0 / level-idc=51 / high-tier=1 / uhd-bd=0 / no-allow-non-conformance / repeat-headers / aud / hrd / info / hash=0 / no-temporal-layers / lookahead-slices=0 / no-splice / no-intra-refresh / no-ssim-rd / signhide / no-tskip / max-merge=5 / temporal-mvp / no-frame-dup / no-hme / analyze-src-pics / no-sao-non-deblock / selective-sao=0 / early-skip / rskip / no-fast-intra / no-tskip-fast / no-splitrd-skip / zone-count=0 / no-strict-cbr / no-rc-grain / no-const-vbv / sar=0 / overscan=0 / videoformat=5 / range=0 / colorprim=9 / transfer=16 / colormatrix=9 / chromaloc=1 / chromaloc-top=2 / chromaloc-bottom=2 / display-window=0 / master-display=G(13250,34500)B(7500,3000)R(34000,16000)WP(15635,16450)L(10000000,1) / cll=674,111 / min-luma=0 / max-luma=1023 / log2-max-poc-lsb=8 / vui-timing-info / vui-hrd-info / slices=1 / no-opt-qp-pps / no-opt-ref-list-length-pps / no-multi-pass-opt-rps / scenecut-bias=0.05 / hist-threshold=0.03 / no-opt-cu-delta-qp / no-aq-motion / hdr10 / hdr10-opt / no-dhdr10-opt / no-idr-recovery-sei / analysis-reuse-level=0 / analysis-save-reuse-level=0 / analysis-load-reuse-level=0 / scale-factor=0 / refine-intra=0 / refine-inter=0 / refine-mv=1 / refine-ctu-distortion=0 / no-limit-sao / ctu-info=0 / no-lowpass-dct / refine-analysis-type=0 / copy-pic=1 / max-ausize-factor=1.0 / no-dynamic-refine / no-single-sei / no-hevc-aq / no-svt / no-field / qp-adaptation-range=1.00 / scenecut-aware-qp=0conformance-window-offsets / right=0 / bottom=0 / decoder-max-rate=0 / no-vbv-live-multi-pass
Default                                  : Yes
Forced                                   : No
Color range                              : Limited
Color primaries                          : BT.2020
Transfer characteristics                 : PQ
Matrix coefficients                      : BT.2020 non-constant
Mastering display color primaries        : Display P3
Mastering display luminance              : min: 0.0001 cd/m2, max: 1000 cd/m2
Maximum Content Light Level              : 674 cd/m2
Maximum Frame-Average Light Level        : 111 cd/m2
Audio
ID                                       : 2
ID in the original source medium         : 4352 (0x1100)
Format                                   : DTS XLL
Format/Info                              : Digital Theater Systems
Commercial name                          : DTS-HD Master Audio
Codec ID                                 : A_DTS
Duration                                 : 1 h 27 min
Bit rate mode                            : Variable
Bit rate                                 : 1 921 kb/s
Channel(s)                               : 2 channels
Channel layout                           : L R
Sampling rate                            : 48.0 kHz
Frame rate                               : 93.750 FPS (512 SPF)
Bit depth                                : 24 bits
Compression mode                         : Lossless
Stream size                              : 1.17 GiB (7%)
Title                                    : English
Language                                 : English
Default                                  : Yes
Forced                                   : No
Original source medium                   : Blu-ray
Text #1
ID                                       : 3
ID in the original source medium         : 4769 (0x12A1)
Format                                   : PGS
Muxing mode                              : zlib
Codec ID                                 : S_HDMV/PGS
Codec ID/Info                            : Picture based subtitle format used on BDs/HD-DVDs
Duration                                 : 1 h 26 min
Bit rate                                 : 72.2 kb/s
Frame rate                               : 0.472 FPS
Count of elements                        : 2437
Stream size                              : 44.5 MiB (0%)
Title                                    : chs&eng
Language                                 : Chinese
Default                                  : Yes
Forced                                   : No
Original source medium                   : Blu-ray
Text #2
ID                                       : 4
ID in the original source medium         : 4770 (0x12A2)
Format                                   : PGS
Muxing mode                              : zlib
Codec ID                                 : S_HDMV/PGS
Codec ID/Info                            : Picture based subtitle format used on BDs/HD-DVDs
Duration                                 : 1 h 26 min
Bit rate                                 : 72.4 kb/s
Frame rate                               : 0.472 FPS
Count of elements                        : 2437
Stream size                              : 44.6 MiB (0%)
Title                                    : cht&eng
Language                                 : Chinese
Default                                  : No
Forced                                   : No
Original source medium                   : Blu-ray
Text #3
ID                                       : 5
ID in the original source medium         : 4771 (0x12A3)
Format                                   : PGS
Muxing mode                              : zlib
Codec ID                                 : S_HDMV/PGS
Codec ID/Info                            : Picture based subtitle format used on BDs/HD-DVDs
Duration                                 : 1 h 26 min
Bit rate                                 : 40.9 kb/s
Frame rate                               : 0.472 FPS
Count of elements                        : 2437
Stream size                              : 25.2 MiB (0%)
Title                                    : chs
Language                                 : Chinese
Default                                  : No
Forced                                   : No
Original source medium                   : Blu-ray
Text #4
ID                                       : 6
ID in the original source medium         : 4772 (0x12A4)
Format                                   : PGS
Muxing mode                              : zlib
Codec ID                                 : S_HDMV/PGS
Codec ID/Info                            : Picture based subtitle format used on BDs/HD-DVDs
Duration                                 : 1 h 26 min
Bit rate                                 : 41.1 kb/s
Frame rate                               : 0.472 FPS
Count of elements                        : 2437
Stream size                              : 25.3 MiB (0%)
Title                                    : cht
Language                                 : Chinese
Default                                  : No
Forced                                   : No
Original source medium                   : Blu-ray
Text #5
ID                                       : 7
ID in the original source medium         : 4768 (0x12A0)
Format                                   : PGS
Muxing mode                              : zlib
Codec ID                                 : S_HDMV/PGS
Codec ID/Info                            : Picture based subtitle format used on BDs/HD-DVDs
Duration                                 : 1 h 24 min
Bit rate                                 : 50.2 kb/s
Frame rate                               : 0.455 FPS
Count of elements                        : 2318
Stream size                              : 30.5 MiB (0%)
Title                                    : eng
Language                                 : English
Default                                  : No
Forced                                   : No
Original source medium                   : Blu-ray
Menu
00:00:00.000                             : en:Chapter 01
00:08:41.583                             : en:Chapter 02
00:16:25.041                             : en:Chapter 03
00:25:06.791                             : en:Chapter 04
00:35:35.333                             : en:Chapter 05
00:44:14.250                             : en:Chapter 06
00:53:23.458                             : en:Chapter 07
01:01:33.750                             : en:Chapter 08
01:09:01.291                             : en:Chapter 09
01:17:06.833                             : en:Chapter 10
部分资源为软字幕,移动端推荐播放器:MxPlayer,nPlayer,infuse ,其他播放器请自行尝试。
部分资源为软字幕,电脑端推荐播放器:PotPlayer,完美解码,KMPLAYER,其他播放器请自行尝试。






~~~~~~~~~~~~~~~~~~~~~~~~~~~~~~~~~~~~~~~~~
[更 早][欧美][剧情][WEB-4K]光荣之路[HDR/杜比视界双版本][简繁英字幕].Paths.of.Glory.1957.2160p.UHD.BluRay.x265.10bit.DV.DTS-

【文件列表】:


Paths.of.Glory.1957.2160p.UHD.BluRay.x265.10bit.DV.DTS-HD.MA.2.0-SONYHD.



【下载地址列表】:


游客
文件下载链接就在这里,在您回复评论成功后才能显示。
请勿回复无意义的灌水内容。


下拉页面到最底部回复或者【点击此处快捷回复】,回复后返回此处即可查看下载链接。
如您没注册本站会员,可以点击注册本站,注册后即可回复下载。



软字幕无法在截图上展现,HDR版本/杜比视界版本截图会出现颜色异常,请使用支持的设备播放!






[img][/img]






[img][/img]

(HDR版本/杜比视界版本,截图会出现颜色异常,请使用支持的设备播放)

小贴士:【影视自媒体解说文案请移步:夏至文案解说网 www.xiazhi.vip

上一篇:[更 早][韩国][剧情][BD-1080P]我的野蛮女友[中文字幕/特效字幕].My.Sassy.Girl.2001.Bluray.1080p.AAC2.0.x264- 4.02GB
下一篇:[2018][欧美][剧情][WEB-1080P]私人生活[中文字幕].Private.Life.2018.1080p.NF.WEB-DL.x264.DDP5.1- 4.76GB
回复

使用道具 举报

您需要登录后才可以回帖 登录 | 立即注册

本版积分规则

Archiver|手机版|小众纪录片影视聚合

GMT+8, 2024-7-13 02:01 , Processed in 0.073059 second(s), 13 queries , Gzip On, Redis On.

Powered by 小众纪录片影视聚合 @2010-2023

Copyright © 2010-2024, https://www.xzjlp.com/.


免责说明:本站所有内容链接、图文介绍等均来自于互联网网友分享,本站仅支持web页面展示和文字介绍,绝不提供在线观看和存储服务,也不参与录制、上传、压片。若本站收录内容无意侵犯贵司版权,请发邮件到【a885185#163.com】联系本站,我们将在第一时间删除侵权内容。谢谢!

快速回复 返回顶部 返回列表