小众纪录片影视聚合

 找回密码
 立即注册
查看: 3|回复: 0

[蓝光电影] [2017][韩国][动作][BD-1080P]犯罪都市[国韩多音轨/中文字幕/特效字幕].The.Outlaws.2017.V2.BluRay.1080p.DTS-HDMA5.1.x264-

[复制链接]

116万

主题

116万

帖子

116万

积分

超级版主

Rank: 8Rank: 8

积分
1167997
发表于 2024-7-9 21:14:15 | 显示全部楼层 |阅读模式


[2017][韩国][动作][BD-1080P]犯罪都市[国韩多音轨/中文字幕/特效字幕].The.Outlaws.2017.V2.BluRay.1080p.DTS-HDMA5.1.x264-

完整标题:犯罪都市[国韩多音轨/中文字幕/特效字幕].The.Outlaws.2017.V2.BluRay.1080p.DTS-HDMA5.1.x264-DreamHD 12.76GB
◎标  题 犯罪都市
◎译  名 Crime City / The Outlaws / 犯罪城市
◎片  名 범죄도시
◎年  代 2017
◎产  地 韩国
◎类  别 动作 / 犯罪
◎语  言 韩语 / 汉语普通话
◎上映日期 2017-10-03(韩国)
◎IMDb评分 7.2/10 (11754人评价)
◎IMDb链接 https://www.imdb.com/title/tt7468056/
◎豆瓣评分 7.7/10 (114263人评价)
◎豆瓣链接 https://movie.douban.com/subject/26946510/
◎片  长 121分钟
◎导  演 姜允成 Yoon Sung Kang
◎编  剧 姜允成 Yoon Sung Kang
◎演  员 马东锡 Ma Dong-seok
       尹启相 Kye-sang Yoon
       赵在允 Jae-yun Jo
       崔奎华 Gwi-hwa Choi
       林炯俊 Hyeong-jun Lim
       陈善圭 Seon-kyu Jin
       洪基俊 Ki-joon Hong
       许栋元 Heo Dong-won
       河俊 Ha Jun
       金成圭 Sungkyu Kim
       朴智焕 Park Ji-hwan
       许成泰 Seong-tae Heo
       闵庆珍 Kyoung-jin Min
       尹炳熙 Yoon Byeong-hee
       李相元 Lee Sang-won
       郑仁基 In-gi Jeong
       严智星 Ji-seong Eom
       白仁权 In-Kwon Baek
       裴振雄 Jin-woong Bae
       韩成天 Han Sung-chun
       金久澤 Kim Goo-taek
       金旲兴 Dae-heung Kim
       崔成宰 Choi Sung-jae
       赵震雄 Cho Jin-woong
       允珠 Joo Yun
       琴光山 Geum Gwang-san
       俞智妍 Ji-Yeon Yoo
       朴相奎 Park Sang-gyu
       申基禄 Sin Gi-rok
       金光炫 Kim Kwang-hyun
       Kwon Jin-woo  Kwon Jin-woo
       吴敏爱 Min-ae Oh
       李晟宇 Sung-woo Lee
       金茂 Jin Mo
       尹大烈 Dae-yeol Yoon
       闵武济 Moo-je Min
       芮呈和 Jung-hwa Ye
       李奎浩 Kyu-ho Lee
       裴真雅 Jin-ah Bae
       郑仁谦 In-gyeom Jeong
       郑载宪 Jae-heon Jeong
       Kim Yoon-bae Kim Yoon-bae
       李泰圭 Lee Tae-gyoo
       郑亨锡 Jeong Hyeong-seok
       高恩伊 Ko Eun-i
◎简  介
    影片讲述了韩国刑警们展开“扫荡暴力作战”行动,将新兴犯罪组织一网打尽的的故事。##### MediaInfo ######
General
Unique ID                                : 181764297887256455963478083528044948310 (0x88BE87C9175BCA0E41CA0C8201A1AB56)
Complete name                            : The.Outlaws.2017.V2.BluRay.1080p.DTS-HDMA5.1.x264-DreamHD.mkv
Duration                                 : 2 h 1 min
Overall bit rate mode                    : Variable
Overall bit rate                         : 15.1 Mb/s
Video
ID                                       : 1
Format                                   : AVC
Format/Info                              : Advanced Video Codec
Format profile                           : [email protected]
Format settings                          : CABAC / 5 Ref Frames
Format settings, CABAC                   : Yes
Format settings, Reference frames        : 5 frames
Codec ID                                 : V_MPEG4/ISO/AVC
Duration                                 : 2 h 1 min
Bit rate                                 : 10.7 Mb/s
Width                                    : 1 920 pixels
Height                                   : 804 pixels
Display aspect ratio                     : 2.40:1
Frame rate mode                          : Constant
Frame rate                               : 23.976 (24000/1001) FPS
Color space                              : YUV
Chroma subsampling                       : 4:2:0
Bit depth                                : 8 bits
Scan type                                : Progressive
Bits/(Pixel*Frame)                       : 0.290
Stream size                              : 9.07 GiB (71%)
Writing library                          : x264 core 164 r3094 bfc87b7
Encoding settings                        : cabac=1 / ref=5 / deblock=1:-3:-3 / analyse=0x3:0x113 / me=umh / subme=11 / psy=1 / psy_rd=1.00:0.00 / mixed_ref=1 / me_range=64 / chroma_me=1 / trellis=2 / 8x8dct=1 / cqm=0 / deadzone=21,11 / fast_pskip=0 / chroma_qp_offset=-2 / threads=24 / lookahead_threads=6 / sliced_threads=0 / nr=0 / decimate=0 / interlaced=0 / bluray_compat=0 / constrained_intra=0 / bframes=12 / b_pyramid=2 / b_adapt=2 / b_bias=0 / direct=3 / weightb=1 / open_gop=0 / weightp=2 / keyint=250 / keyint_min=23 / scenecut=40 / intra_refresh=0 / rc=crf / mbtree=0 / crf=19.0 / qcomp=0.70 / qpmin=0 / qpmax=69 / qpstep=4 / ip_ratio=1.30 / pb_ratio=1.20 / aq=3:0.80
Default                                  : Yes
Forced                                   : No
Color range                              : Limited
Color primaries                          : BT.709
Matrix coefficients                      : BT.709
Audio #1
ID                                       : 2
ID in the original source medium         : 4352 (0x1100)
Format                                   : DTS XLL
Format/Info                              : Digital Theater Systems
Commercial name                          : DTS-HD Master Audio
Codec ID                                 : A_DTS
Duration                                 : 2 h 1 min
Bit rate mode                            : Variable
Bit rate                                 : 3 793 kb/s
Channel(s)                               : 6 channels
Channel layout                           : C L R Ls Rs LFE
Sampling rate                            : 48.0 kHz
Frame rate                               : 93.750 FPS (512 SPF)
Bit depth                                : 24 bits
Compression mode                         : Lossless
Stream size                              : 3.21 GiB (25%)
Title                                    : Surround
Language                                 : Korean
Default                                  : Yes
Forced                                   : No
Original source medium                   : Blu-ray
Audio #2
ID                                       : 3
Format                                   : AC-3
Format/Info                              : Audio Coding 3
Commercial name                          : Dolby Digital
Codec ID                                 : A_AC3
Duration                                 : 2 h 1 min
Bit rate mode                            : Constant
Bit rate                                 : 192 kb/s
Channel(s)                               : 2 channels
Channel layout                           : L R
Sampling rate                            : 48.0 kHz
Frame rate                               : 31.250 FPS (1536 SPF)
Compression mode                         : Lossy
Stream size                              : 166 MiB (1%)
Title                                    : Mandarin(TW-EBC By applo@cnlang)
Language                                 : Chinese
Service kind                             : Complete Main
Default                                  : Yes
Forced                                   : No
Text #1
ID                                       : 4
ID in the original source medium         : 4608 (0x1200)
Format                                   : PGS
Codec ID                                 : S_HDMV/PGS
Codec ID/Info                            : Picture based subtitle format used on BDs/HD-DVDs
Duration                                 : 1 h 55 min
Bit rate                                 : 33.1 kb/s
Frame rate                               : 0.458 FPS
Count of elements                        : 3171
Stream size                              : 27.3 MiB (0%)
Language                                 : Korean
Default                                  : No
Forced                                   : No
Original source medium                   : Blu-ray
Text #2
ID                                       : 5
ID in the original source medium         : 4609 (0x1201)
Format                                   : PGS
Codec ID                                 : S_HDMV/PGS
Codec ID/Info                            : Picture based subtitle format used on BDs/HD-DVDs
Duration                                 : 1 h 56 min
Bit rate                                 : 32.1 kb/s
Frame rate                               : 0.447 FPS
Count of elements                        : 3126
Stream size                              : 26.7 MiB (0%)
Language                                 : English
Default                                  : Yes
Forced                                   : No
Original source medium                   : Blu-ray
Text #3
ID                                       : 6
ID in the original source medium         : 4611 (0x1203)
Format                                   : PGS
Codec ID                                 : S_HDMV/PGS
Codec ID/Info                            : Picture based subtitle format used on BDs/HD-DVDs
Duration                                 : 1 h 56 min
Bit rate                                 : 61.0 kb/s
Frame rate                               : 0.521 FPS
Count of elements                        : 3637
Stream size                              : 50.7 MiB (0%)
Title                                    : Chs{TSKS}
Language                                 : Chinese
Default                                  : Yes
Forced                                   : No
Original source medium                   : Blu-ray
Text #4
ID                                       : 7
ID in the original source medium         : 4612 (0x1204)
Format                                   : PGS
Codec ID                                 : S_HDMV/PGS
Codec ID/Info                            : Picture based subtitle format used on BDs/HD-DVDs
Duration                                 : 1 h 56 min
Bit rate                                 : 61.4 kb/s
Frame rate                               : 0.521 FPS
Count of elements                        : 3637
Stream size                              : 51.1 MiB (0%)
Title                                    : Cht{TSKS}
Language                                 : Chinese
Default                                  : Yes
Forced                                   : No
Original source medium                   : Blu-ray
Text #5
ID                                       : 8
Format                                   : PGS
Codec ID                                 : S_HDMV/PGS
Codec ID/Info                            : Picture based subtitle format used on BDs/HD-DVDs
Duration                                 : 1 h 57 min
Bit rate                                 : 99.2 kb/s
Frame rate                               : 1.500 FPS
Count of elements                        : 10572
Stream size                              : 83.3 MiB (1%)
Title                                    : Chs&Kor{TX@KKYY}
Language                                 : Chinese
Default                                  : Yes
Forced                                   : No
Text #6
ID                                       : 9
Format                                   : PGS
Codec ID                                 : S_HDMV/PGS
Codec ID/Info                            : Picture based subtitle format used on BDs/HD-DVDs
Duration                                 : 1 h 57 min
Bit rate                                 : 100 kb/s
Frame rate                               : 1.500 FPS
Count of elements                        : 10572
Stream size                              : 84.1 MiB (1%)
Title                                    : Cht&Kor{TX@KKYY}
Language                                 : Chinese
Default                                  : Yes
Forced                                   : No
Menu
00:00:00.000                             : en:Chapter 01
00:10:35.635                             : en:Chapter 02
00:20:01.992                             : en:Chapter 03
00:27:15.759                             : en:Chapter 04
00:34:13.968                             : en:Chapter 05
00:43:32.109                             : en:Chapter 06
00:54:10.830                             : en:Chapter 07
01:03:30.848                             : en:Chapter 08
01:12:20.210                             : en:Chapter 09
01:19:29.389                             : en:Chapter 10
01:25:37.882                             : en:Chapter 11
01:32:26.040                             : en:Chapter 12
01:39:06.982                             : en:Chapter 13
01:46:26.588                             : en:Chapter 14
01:55:29.339                             : en:Chapter 15
部分资源为软字幕,移动端推荐播放器:MxPlayer,nPlayer,infuse ,其他播放器请自行尝试。
部分资源为软字幕,电脑端推荐播放器:PotPlayer,完美解码,KMPLAYER,其他播放器请自行尝试。






~~~~~~~~~~~~~~~~~~~~~~~~~~~~~~~~~~~~~~~~~
[2017][韩国][动作][BD-1080P]犯罪都市[国韩多音轨/中文字幕/特效字幕].The.Outlaws.2017.V2.BluRay.1080p.DTS-HDMA5.1.x264-

【文件列表】:


The.Outlaws.2017.V2.BluRay.1080p.DTS-HDMA5.1.x264-DreamHD.



【下载地址列表】:


游客
文件下载链接就在这里,在您回复评论成功后才能显示。
请勿回复无意义的灌水内容。


下拉页面到最底部回复或者【点击此处快捷回复】,回复后返回此处即可查看下载链接。
如您没注册本站会员,可以点击注册本站,注册后即可回复下载。



软字幕无法在截图上展现,HDR版本/杜比视界版本截图会出现颜色异常,请使用支持的设备播放!






[img][/img]






[img][/img]

(HDR版本/杜比视界版本,截图会出现颜色异常,请使用支持的设备播放)

小贴士:【影视自媒体解说文案请移步:夏至文案解说网 www.xiazhi.vip

上一篇:[2018][欧美][剧情][WEB-1080P]私人生活[中文字幕].Private.Life.2018.1080p.NF.WEB-DL.x264.DDP5.1- 4.76GB
下一篇:[2017][韩国][动作][BD-1080P]犯罪都市[国韩多音轨/中文字幕/特效字幕].The.Outlaws.2017.V2.BluRay.1080p.DTS-HDMA5.1.x265.10bit-Dr
回复

使用道具 举报

您需要登录后才可以回帖 登录 | 立即注册

本版积分规则

Archiver|手机版|小众纪录片影视聚合

GMT+8, 2024-7-24 23:26 , Processed in 0.069588 second(s), 13 queries , Gzip On, Redis On.

Powered by 小众纪录片影视聚合 @2010-2023

Copyright © 2010-2024, https://www.xzjlp.com/.


免责说明:本站所有内容链接、图文介绍等均来自于互联网网友分享,本站仅支持web页面展示和文字介绍,绝不提供在线观看和存储服务,也不参与录制、上传、压片。若本站收录内容无意侵犯贵司版权,请发邮件到【a885185#163.com】联系本站,我们将在第一时间删除侵权内容。谢谢!

快速回复 返回顶部 返回列表