小众纪录片影视聚合

 找回密码
 立即注册
查看: 3|回复: 0

[蓝光电影] [2018][欧美][剧情][WEB-1080P]私人生活[中文字幕].Private.Life.2018.1080p.NF.WEB-DL.x264.DDP5.1- 4.76GB

[复制链接]

113万

主题

113万

帖子

113万

积分

超级版主

Rank: 8Rank: 8

积分
1134020
发表于 2024-7-9 21:14:11 | 显示全部楼层 |阅读模式


[2018][欧美][剧情][WEB-1080P]私人生活[中文字幕].Private.Life.2018.1080p.NF.WEB-DL.x264.DDP5.1- 4.76GB

完整标题:私人生活[中文字幕].Private.Life.2018.1080p.NF.WEB-DL.x264.DDP5.1-SONYHD 4.76GB
◎标  题 私人生活
◎译  名 非孕私生活(台) / 不育私生活(港)
◎片  名 Private Life
◎年  代 2018
◎产  地 美国
◎类  别 剧情 / 喜剧
◎语  言 英语
◎上映日期 2018-01-18(圣丹斯电影节) / 2018-10-05(美国)
◎IMDb评分 7.2/10 (20523人评价)
◎IMDb链接 https://www.imdb.com/title/tt5536610/
◎豆瓣评分 7.5/10 (8580人评价)
◎豆瓣链接 https://movie.douban.com/subject/26985996/
◎片  长 123分钟
◎导  演 塔玛拉·詹金斯 Tamara Jenkins
◎编  剧 塔玛拉·詹金斯 Tamara Jenkins
◎演  员 凯瑟琳·哈恩 Kathryn Hahn
       保罗·吉亚玛提 Paul Giamatti
       约翰·卡洛·林奇 John Carroll Lynch
       丹尼斯·欧哈拉 Denis O'Hare
       艾米丽·罗宾森 Emily Robinson
       莫莉·香侬 Molly Shannon
       希博汗·法隆 Siobhan Fallon
       凯莉·卡特 Kayli Carter
       麦迪·科尔曼 Maddie Corman
       弗朗西丝卡·鲁特-多德森 Francesca Root-Dodson
       海缇安·朴 Hettienne Park
       特雷西·齐默 Tracee Chimo
       戴斯敏·博格斯 Desmin Borges
       萨曼莎·布克 Samantha Buck
       马米·科西科 Marmee Cosico
       艾丽莎·奇塔姆 Alyssa Cheatham
       凯莉·米勒 Kelly Miller
       安娜·库奇马 Anna Kuchma
       斯宾塞·摩西 Spencer Moses
       罗丝玛丽·霍华德 Rosemary Howard
       芭芭拉·辛格 Barbara Singer
       艾米·露斯 Amy Russ
◎简  介
    理查(保罗·吉亚玛提 饰)和瑞秋(凯瑟琳·哈恩 饰)因不孕而饱受煎熬。这对夫妻一心投入辅助生育和领养安排,在这个狭小领域中愈陷愈深,同时还要为维系婚姻付出努力。他们尝试了试管婴儿,情绪和财务都受到严重影响,眼看中年就要步入尾声,感觉山穷水尽之际,刚从大学辍学的莎蒂(凯丽·卡特 饰)出现并再次进入了他们的生活,一切也终于开始好转......##### MediaInfo ######
General
Unique ID                                : 250130094551415278112521765930527250727 (0xBC2D4DCCF93A6B79598B77D9457A5927)
Complete name                            : Private.Life.2018.1080p.NF.WEB-DL.x264.DDP5.1-SONYHD.mkv
Duration                                 : 2 h 4 min
Overall bit rate mode                    : Variable
Overall bit rate                         : 5 494 kb/s
Video
ID                                       : 1
Format                                   : AVC
Format/Info                              : Advanced Video Codec
Format profile                           : Main@L4
Format settings                          : CABAC / 3 Ref Frames
Format settings, CABAC                   : Yes
Format settings, Reference frames        : 3 frames
Codec ID                                 : V_MPEG4/ISO/AVC
Duration                                 : 2 h 4 min
Bit rate mode                            : Variable
Bit rate                                 : 4 745 kb/s
Nominal bit rate                         : 5 000 kb/s
Maximum bit rate                         : 7 500 kb/s
Width                                    : 1 920 pixels
Height                                   : 1 080 pixels
Display aspect ratio                     : 16:9
Frame rate mode                          : Constant
Frame rate                               : 23.976 (24000/1001) FPS
Color space                              : YUV
Chroma subsampling                       : 4:2:0
Bit depth                                : 8 bits
Scan type                                : Progressive
Bits/(Pixel*Frame)                       : 0.095
Stream size                              : 4.11 GiB (86%)
Writing library                          : x264 core 148 r2727 7d026e8
Encoding settings                        : cabac=1 / ref=3 / deblock=1:0:0 / analyse=0x1:0x111 / me=umh / subme=10 / psy=1 / psy_rd=1.00:0.00 / mixed_ref=1 / me_range=24 / chroma_me=1 / trellis=2 / 8x8dct=0 / cqm=0 / deadzone=21,11 / fast_pskip=1 / chroma_qp_offset=-2 / threads=6 / lookahead_threads=1 / sliced_threads=0 / nr=0 / decimate=1 / interlaced=0 / bluray_compat=0 / stitchable=1 / constrained_intra=0 / bframes=2 / b_pyramid=0 / b_adapt=2 / b_bias=0 / direct=3 / weightb=1 / open_gop=0 / weightp=2 / keyint=240 / keyint_min=121 / scenecut=0 / intra_refresh=0 / rc_lookahead=48 / rc=2pass / mbtree=1 / bitrate=5000 / ratetol=1.0 / qcomp=0.50 / qpmin=6 / qpmax=51 / qpstep=4 / cplxblur=20.0 / qblur=0.5 / vbv_maxrate=7500 / vbv_bufsize=10000 / nal_hrd=vbr / filler=0 / ip_ratio=1.40 / aq=1:1.00
Default                                  : Yes
Forced                                   : No
VENDOR_ID                                : [0][0][0][0]
Audio
ID                                       : 2
Format                                   : E-AC-3
Format/Info                              : Enhanced AC-3
Commercial name                          : Dolby Digital Plus
Codec ID                                 : A_EAC3
Duration                                 : 2 h 4 min
Bit rate mode                            : Constant
Bit rate                                 : 640 kb/s
Channel(s)                               : 6 channels
Channel layout                           : L R C LFE Ls Rs
Sampling rate                            : 48.0 kHz
Frame rate                               : 31.250 FPS (1536 SPF)
Bit depth                                : 32 bits
Compression mode                         : Lossy
Stream size                              : 568 MiB (12%)
Title                                    : 英语 [原始]
Language                                 : English
Service kind                             : Complete Main
Default                                  : Yes
Forced                                   : No
VENDOR_ID                                : [0][0][0][0]
Text #1
ID                                       : 3
Format                                   : UTF-8
Codec ID                                 : S_TEXT/UTF8
Codec ID/Info                            : UTF-8 Plain Text
Duration                                 : 2 h 3 min
Title                                    : 繁体中文
Writing library                          : Lavc60.3.100 srt
Language                                 : Chinese
Default                                  : Yes
Forced                                   : No
Text #2
ID                                       : 4
Format                                   : UTF-8
Codec ID                                 : S_TEXT/UTF8
Codec ID/Info                            : UTF-8 Plain Text
Duration                                 : 2 h 3 min
Title                                    : 简体中文
Writing library                          : Lavc60.3.100 srt
Language                                 : Chinese
Default                                  : No
Forced                                   : No
部分资源为软字幕,移动端推荐播放器:MxPlayer,nPlayer,infuse ,其他播放器请自行尝试。
部分资源为软字幕,电脑端推荐播放器:PotPlayer,完美解码,KMPLAYER,其他播放器请自行尝试。






~~~~~~~~~~~~~~~~~~~~~~~~~~~~~~~~~~~~~~~~~
[2018][欧美][剧情][WEB-1080P]私人生活[中文字幕].Private.Life.2018.1080p.NF.WEB-DL.x264.DDP5.1- 4.76GB

【文件列表】:


Private.Life.2018.1080p.NF.WEB-DL.x264.DDP5.1-SONYHD.



【下载地址列表】:


游客
文件下载链接就在这里,在您回复评论成功后才能显示。
请勿回复无意义的灌水内容。


下拉页面到最底部回复或者【点击此处快捷回复】,回复后返回此处即可查看下载链接。
如您没注册本站会员,可以点击注册本站,注册后即可回复下载。



软字幕无法在截图上展现,HDR版本/杜比视界版本截图会出现颜色异常,请使用支持的设备播放!






[img][/img]






[img][/img]

(HDR版本/杜比视界版本,截图会出现颜色异常,请使用支持的设备播放)

小贴士:【影视自媒体解说文案请移步:夏至文案解说网 www.xiazhi.vip

上一篇:[更 早][欧美][剧情][WEB-4K]光荣之路[HDR/杜比视界双版本][简繁英字幕].Paths.of.Glory.1957.2160p.UHD.BluRay.x265.10bit.DV.DTS-
下一篇:[2017][韩国][动作][BD-1080P]犯罪都市[国韩多音轨/中文字幕/特效字幕].The.Outlaws.2017.V2.BluRay.1080p.DTS-HDMA5.1.x264-
回复

使用道具 举报

您需要登录后才可以回帖 登录 | 立即注册

本版积分规则

Archiver|手机版|小众纪录片影视聚合

GMT+8, 2024-7-20 16:49 , Processed in 0.351632 second(s), 13 queries , Gzip On, Redis On.

Powered by 小众纪录片影视聚合 @2010-2023

Copyright © 2010-2024, https://www.xzjlp.com/.


免责说明:本站所有内容链接、图文介绍等均来自于互联网网友分享,本站仅支持web页面展示和文字介绍,绝不提供在线观看和存储服务,也不参与录制、上传、压片。若本站收录内容无意侵犯贵司版权,请发邮件到【a885185#163.com】联系本站,我们将在第一时间删除侵权内容。谢谢!

快速回复 返回顶部 返回列表