小众纪录片影视聚合

 找回密码
 立即注册
查看: 11|回复: 0

[蓝光电影] [2015][欧美][动作][WEB-4K]饥饿游戏3:嘲笑鸟(下)[国英多音轨/中文字幕/特效字幕].2015.Bluray.2160p.TrueHD7.1.HDR.x265.10bit-

[复制链接]

116万

主题

116万

帖子

116万

积分

超级版主

Rank: 8Rank: 8

积分
1167997
发表于 2024-7-9 21:14:37 | 显示全部楼层 |阅读模式


[2015][欧美][动作][WEB-4K]饥饿游戏3:嘲笑鸟(下)[国英多音轨/中文字幕/特效字幕].2015.Bluray.2160p.TrueHD7.1.HDR.x265.10bit-

完整标题:饥饿游戏3:嘲笑鸟(下)[国英多音轨/中文字幕/特效字幕].2015.Bluray.2160p.TrueHD7.1.HDR.x265.10bit-DreamHD 30.36GB
◎标  题 饥饿游戏3:嘲笑鸟(下)
◎译  名 饥饿游戏:自由幻梦最终章(台) / 饥饿游戏终极篇:自由幻梦2(港) / 饥饿游戏3:自由幻梦(下) / 饥饿游戏:自由梦幻(下) / 饥饿游戏 第三部(下) / 嘲笑鸟(下)
◎年  代 2015
◎产  地 美国
◎类  别 动作 / 科幻 / 冒险
◎语  言 英语
◎上映日期 2015-11-20(美国 / 中国大陆)
◎IMDb评分 6.5/10 (335997人评价)
◎IMDb链接 https://www.imdb.com/title/tt1951266/
◎豆瓣评分 6.5/10 (138897人评价)
◎豆瓣链接 https://movie.douban.com/subject/10047547/
◎片  长 136分钟
◎导  演 弗朗西斯·劳伦斯 Francis Lawrence
◎编  剧 丹尼·斯特朗 Danny Strong
       彼得·克莱格 Peter Craig
       苏珊·科林斯 Suzanne Collins
◎演  员 詹妮弗·劳伦斯 Jennifer Lawrence
       乔什·哈切森 Josh Hutcherson
       利亚姆·海姆斯沃斯 Liam Hemsworth
       伍迪·哈里森 Woody Harrelson
       伊丽莎白·班克斯 Elizabeth Banks
       朱丽安·摩尔 Julianne Moore
       菲利普·塞默·霍夫曼 Philip Seymour Hoffman
       杰弗里·怀特 Jeffrey Wright
       斯坦利·图齐 Stanley Tucci
       唐纳德·萨瑟兰 Donald Sutherland
       托比·琼斯 Toby Jones
       山姆·克拉弗林 Sam Claflin
       吉娜·马隆 Jena Malone
       娜塔莉·多默尔 Natalie Dormer
       伊万·罗斯 Evan Ross
       马赫沙拉·阿里 Mahershala Ali
       罗伯特·克耐普 Robert Knepper
       格温多兰·克里斯蒂 Gwendoline Christie
       奥米德·阿布塔西 Omid Abtahi
       埃尔登·汉森 Elden Henson
       斯黛芬·道森 Stef Dawson
       伊齐·费内奇 Izzy Fenech
       蒂芬妮·弗拉斯 Tiffany Furbee
       Lauren Henneberg Lauren Henneberg
       加里·西弗斯 Gary Sievers
◎简  介
    施惠国爆发了全面战争,凯特尼斯(詹妮弗·劳伦斯 Jennifer Lawrence 饰)将在最后关头对峙斯诺总统(唐纳德·萨瑟兰 Donald Sutherland 饰)。在盖尔(利亚姆·海姆斯沃斯 Liam Hemsworth 饰)、芬尼克(山姆·克拉弗林 Sam Claflin 饰)和皮塔(乔什·哈切森 Josh Hutcherson 饰)等好友的陪伴下,凯特尼斯和十三区的小队一起为了解放施惠国的人民而冒险抗争,并且策划暗杀越来越执迷于杀死她的斯诺总统。凯特尼斯将面对致命陷阱、劲敌和道义上的选择,而这些挑战都不曾出现在饥饿游戏的竞技场中。
点击图片可查看大图
软字幕无法在截图上展现,HDR版本/杜比视界版本截图会出现颜色异常,请使用支持的设备播放!
##### MediaInfo ######
General
Unique ID                                : 62190510084473031925256168864859916906 (0x2EC974E14D63A5BE6635115593318A6A)
Complete name                            : The.Hunger.Games.Mockingjay-.Part.2.2015.Bluray.2160p.TrueHD7.1.HDR.x265.10bit-DreamHD.mkv
Duration                                 : 2 h 16 min
Overall bit rate mode                    : Variable
Overall bit rate                         : 31.7 Mb/s
Video
ID                                       : 1
Format                                   : HEVC
Format/Info                              : High Efficiency Video Coding
Format profile                           : Main 10@L5@Main
HDR format                               : SMPTE ST 2086, HDR10 compatible
Codec ID                                 : V_MPEGH/ISO/HEVC
Duration                                 : 2 h 16 min
Bit rate                                 : 25.0 Mb/s
Width                                    : 3 840 pixels
Height                                   : 1 612 pixels
Display aspect ratio                     : 2.40:1
Frame rate mode                          : Constant
Frame rate                               : 23.976 (24000/1001) FPS
Color space                              : YUV
Chroma subsampling                       : 4:2:0 (Type 2)
Bit depth                                : 10 bits
Bits/(Pixel*Frame)                       : 0.169
Stream size                              : 23.9 GiB (79%)
Writing library                          : x265 3.5+100-3dae0c3cc:[Windows][GCC 12.2.0][64 bit] 10bit
Encoding settings                        : cpuid=1111039 / frame-threads=5 / numa-pools=64,32,0,0 / wpp / no-pmode / no-pme / no-psnr / no-ssim / log-level=2 / input-csp=1 / input-res=3840x1612 / interlace=0 / total-frames=0 / level-idc=0 / high-tier=1 / uhd-bd=0 / ref=6 / no-allow-non-conformance / repeat-headers / annexb / no-aud / no-eob / no-eos / no-hrd / info / hash=0 / temporal-layers=0 / no-open-gop / min-keyint=23 / keyint=250 / gop-lookahead=0 / bframes=14 / b-adapt=2 / b-pyramid / bframe-bias=0 / rc-lookahead=75 / lookahead-slices=8 / scenecut=40 / no-hist-scenecut / radl=0 / no-splice / no-intra-refresh / ctu=32 / min-cu-size=8 / no-rect / no-amp / max-tu-size=32 / tu-inter-depth=1 / tu-intra-depth=1 / limit-tu=0 / rdoq-level=2 / dynamic-rd=0.00 / no-ssim-rd / signhide / no-tskip / nr-intra=0 / nr-inter=0 / no-constrained-intra / no-strong-intra-smoothing / max-merge=3 / limit-refs=1 / no-limit-modes / me=3 / subme=7 / merange=64 / temporal-mvp / no-frame-dup / no-hme / weightp / weightb / no-analyze-src-pics / deblock=0:0 / no-sao / no-sao-non-deblock / rd=4 / selective-sao=0 / no-early-skip / rskip / no-fast-intra / no-tskip-fast / no-cu-lossless / b-intra / no-splitrd-skip / rdpenalty=2 / psy-rd=3.00 / psy-rdoq=4.80 / no-rd-refine / no-lossless / cbqpoffs=0 / crqpoffs=0 / rc=crf / crf=12.1 / qcomp=0.60 / qpstep=4 / stats-write=0 / stats-read=0 / ipratio=1.40 / pbratio=1.30 / aq-mode=1 / aq-strength=1.00 / cutree / zone-count=0 / no-strict-cbr / qg-size=32 / no-rc-grain / qpmax=69 / qpmin=0 / no-const-vbv / sar=0 / overscan=0 / videoformat=5 / range=0 / colorprim=9 / transfer=16 / colormatrix=9 / chromaloc=1 / chromaloc-top=2 / chromaloc-bottom=2 / display-window=0 / master-display=G(13250,34500)B(7500,3000)R(34000,16000)WP(15635,16450)L(40000000,50) / cll=3940,371 / min-luma=0 / max-luma=1023 / log2-max-poc-lsb=8 / vui-timing-info / vui-hrd-info / slices=1 / no-opt-qp-pps / no-opt-ref-list-length-pps / no-multi-pass-opt-rps / scenecut-bias=0.05 / no-opt-cu-delta-qp / aq-motion / hdr10 / hdr10-opt / no-dhdr10-opt / no-idr-recovery-sei / analysis-reuse-level=0 / analysis-save-reuse-level=0 / analysis-load-reuse-level=0 / scale-factor=0 / refine-intra=0 / refine-inter=0 / refine-mv=1 / refine-ctu-distortion=0 / no-limit-sao / ctu-info=0 / no-lowpass-dct / refine-analysis-type=0 / copy-pic=1 / max-ausize-factor=1.0 / no-dynamic-refine / no-single-sei / no-hevc-aq / no-svt / no-field / qp-adaptation-range=1.00 / scenecut-aware-qp=0conformance-window-offsets / right=0 / bottom=0 / decoder-max-rate=0 / no-vbv-live-multi-pass / no-mcstf / no-sbrc
Default                                  : Yes
Forced                                   : No
Color range                              : Limited
Color primaries                          : BT.2020
Transfer characteristics                 : PQ
Matrix coefficients                      : BT.2020 non-constant
Mastering display color primaries        : Display P3
Mastering display luminance              : min: 0.0050 cd/m2, max: 4000 cd/m2
Maximum Content Light Level              : 3940 cd/m2
Maximum Frame-Average Light Level        : 371 cd/m2
Audio #1
ID                                       : 2
ID in the original source medium         : 4352 (0x1100)
Format                                   : MLP FBA 16-ch
Format/Info                              : Meridian Lossless Packing FBA with 16-channel presentation
Commercial name                          : Dolby TrueHD with Dolby Atmos
Codec ID                                 : A_TRUEHD
Duration                                 : 2 h 16 min
Bit rate mode                            : Variable
Bit rate                                 : 4 257 kb/s
Maximum bit rate                         : 9 570 kb/s
Channel(s)                               : 8 channels
Channel layout                           : L R C LFE Ls Rs Lb Rb
Sampling rate                            : 48.0 kHz
Frame rate                               : 1 200.000 FPS (40 SPF)
Bit depth                                : 24 bits
Compression mode                         : Lossless
Stream size                              : 4.07 GiB (13%)
Title                                    : English
Language                                 : English
Default                                  : Yes
Forced                                   : No
Original source medium                   : Blu-ray
Number of dynamic objects                : 15
Bed channel count                        : 1 channel
Bed channel configuration                : LFE
Audio #2
ID                                       : 3
ID in the original source medium         : 4353 (0x1101)
Format                                   : DTS XLL
Format/Info                              : Digital Theater Systems
Commercial name                          : DTS-HD Master Audio
Codec ID                                 : A_DTS
Duration                                 : 2 h 16 min
Bit rate mode                            : Variable
Bit rate                                 : 2 293 kb/s
Channel(s)                               : 8 channels
Channel layout                           : C L R LFE Lb Rb Lss Rss
Sampling rate                            : 48.0 kHz
Frame rate                               : 93.750 FPS (512 SPF)
Bit depth                                : 16 bits
Compression mode                         : Lossless
Stream size                              : 2.19 GiB (7%)
Title                                    : Mandarin
Language                                 : Chinese
Default                                  : No
Forced                                   : No
Original source medium                   : Blu-ray
Text #1
ID                                       : 4
ID in the original source medium         : 4770 (0x12A2)
Format                                   : PGS
Muxing mode                              : zlib
Codec ID                                 : S_HDMV/PGS
Codec ID/Info                            : Picture based subtitle format used on BDs/HD-DVDs
Duration                                 : 2 h 7 min
Bit rate                                 : 28.4 kb/s
Frame rate                               : 0.432 FPS
Count of elements                        : 3297
Stream size                              : 25.9 MiB (0%)
Title                                    : CHS
Language                                 : Chinese
Default                                  : Yes
Forced                                   : No
Original source medium                   : Blu-ray
Text #2
ID                                       : 5
ID in the original source medium         : 4771 (0x12A3)
Format                                   : PGS
Muxing mode                              : zlib
Codec ID                                 : S_HDMV/PGS
Codec ID/Info                            : Picture based subtitle format used on BDs/HD-DVDs
Duration                                 : 2 h 7 min
Bit rate                                 : 29.4 kb/s
Frame rate                               : 0.431 FPS
Count of elements                        : 3301
Stream size                              : 26.8 MiB (0%)
Title                                    : CHT
Language                                 : Chinese
Default                                  : No
Forced                                   : No
Original source medium                   : Blu-ray
Text #3
ID                                       : 6
ID in the original source medium         : 4772 (0x12A4)
Format                                   : PGS
Muxing mode                              : zlib
Codec ID                                 : S_HDMV/PGS
Codec ID/Info                            : Picture based subtitle format used on BDs/HD-DVDs
Duration                                 : 2 h 7 min
Bit rate                                 : 43.0 kb/s
Frame rate                               : 0.432 FPS
Count of elements                        : 3297
Stream size                              : 39.2 MiB (0%)
Title                                    : CHS/ENG
Language                                 : Chinese
Default                                  : No
Forced                                   : No
Original source medium                   : Blu-ray
Text #4
ID                                       : 7
ID in the original source medium         : 4773 (0x12A5)
Format                                   : PGS
Muxing mode                              : zlib
Codec ID                                 : S_HDMV/PGS
Codec ID/Info                            : Picture based subtitle format used on BDs/HD-DVDs
Duration                                 : 2 h 7 min
Bit rate                                 : 44.0 kb/s
Frame rate                               : 0.431 FPS
Count of elements                        : 3301
Stream size                              : 40.2 MiB (0%)
Title                                    : CHT/ENG
Language                                 : Chinese
Default                                  : No
Forced                                   : No
Original source medium                   : Blu-ray
Text #5
ID                                       : 8
ID in the original source medium         : 4768 (0x12A0)
Format                                   : PGS
Muxing mode                              : zlib
Codec ID                                 : S_HDMV/PGS
Codec ID/Info                            : Picture based subtitle format used on BDs/HD-DVDs
Duration                                 : 2 h 4 min
Bit rate                                 : 28.9 kb/s
Frame rate                               : 0.362 FPS
Count of elements                        : 2701
Stream size                              : 25.7 MiB (0%)
Title                                    : ENG
Language                                 : English
Default                                  : Yes
Forced                                   : No
Original source medium                   : Blu-ray
Menu
00:00:00.000                             : en:Chapter 01
00:07:39.041                             : en:Chapter 02
00:16:49.216                             : en:Chapter 03
00:24:47.194                             : en:Chapter 04
00:32:00.001                             : en:Chapter 05
00:37:11.395                             : en:Chapter 06
00:46:42.716                             : en:Chapter 07
00:55:00.880                             : en:Chapter 08
01:02:46.179                             : en:Chapter 09
01:09:27.705                             : en:Chapter 10
01:18:42.968                             : en:Chapter 11
01:29:51.010                             : en:Chapter 12
01:37:08.239                             : en:Chapter 13
01:49:01.785                             : en:Chapter 14
01:56:55.758                             : en:Chapter 15
02:03:32.863                             : en:Chapter 16
部分资源为软字幕,移动端推荐播放器:MxPlayer,nPlayer,infuse ,其他播放器请自行尝试。
部分资源为软字幕,电脑端推荐播放器:PotPlayer,完美解码,KMPLAYER,其他播放器请自行尝试。






~~~~~~~~~~~~~~~~~~~~~~~~~~~~~~~~~~~~~~~~~
[2015][欧美][动作][WEB-4K]饥饿游戏3:嘲笑鸟(下)[国英多音轨/中文字幕/特效字幕].2015.Bluray.2160p.TrueHD7.1.HDR.x265.10bit-

【文件列表】:


2015.Bluray.2160p.TrueHD7.1.HDR.x265.10bit-DreamHD.



【下载地址列表】:


游客
文件下载链接就在这里,在您回复评论成功后才能显示。
请勿回复无意义的灌水内容。


下拉页面到最底部回复或者【点击此处快捷回复】,回复后返回此处即可查看下载链接。
如您没注册本站会员,可以点击注册本站,注册后即可回复下载。



软字幕无法在截图上展现,HDR版本/杜比视界版本截图会出现颜色异常,请使用支持的设备播放!






[img][/img]






[img][/img]

(HDR版本/杜比视界版本,截图会出现颜色异常,请使用支持的设备播放)

小贴士:【影视自媒体解说文案请移步:夏至文案解说网 www.xiazhi.vip

上一篇:[更 早][欧美][喜剧][BD-1080P]贵客光临[简繁英字幕].My.Blue.Heaven.1990.1080p.BluRay.x265.10bit.FLAC.2.0- 6.42GB
下一篇:[2023][香港][动作][WEB-4K]爆裂点[120帧率版本][国粤多音轨/中文字幕].Bursting.Point.2023.2160p.WEB-DL.H265.120fps.DDP5.1.2Au
回复

使用道具 举报

您需要登录后才可以回帖 登录 | 立即注册

本版积分规则

Archiver|手机版|小众纪录片影视聚合

GMT+8, 2024-7-24 22:36 , Processed in 0.106305 second(s), 13 queries , Gzip On, Redis On.

Powered by 小众纪录片影视聚合 @2010-2023

Copyright © 2010-2024, https://www.xzjlp.com/.


免责说明:本站所有内容链接、图文介绍等均来自于互联网网友分享,本站仅支持web页面展示和文字介绍,绝不提供在线观看和存储服务,也不参与录制、上传、压片。若本站收录内容无意侵犯贵司版权,请发邮件到【a885185#163.com】联系本站,我们将在第一时间删除侵权内容。谢谢!

快速回复 返回顶部 返回列表