小众纪录片影视聚合

 找回密码
 立即注册
查看: 4|回复: 0

[蓝光电影] [2023][香港][动作][WEB-4K]爆裂点[120帧率版本][国粤多音轨/中文字幕].Bursting.Point.2023.2160p.WEB-DL.H265.120fps.DDP5.1.2Au

[复制链接]

112万

主题

112万

帖子

112万

积分

超级版主

Rank: 8Rank: 8

积分
1128817
发表于 7 天前 | 显示全部楼层 |阅读模式


[2023][香港][动作][WEB-4K]爆裂点[120帧率版本][国粤多音轨/中文字幕].Bursting.Point.2023.2160p.WEB-DL.H265.120fps.DDP5.1.2Au

完整标题:爆裂点[120帧率版本][国粤多音轨/中文字幕].Bursting.Point.2023.2160p.WEB-DL.H265.120fps.DDP5.1.2Audio-DreamHD 10.07GB
◎标  题 爆裂点
◎译  名 爆裂行动 / Bursting Point
◎片  名 爆裂點
◎年  代 2023
◎产  地 中国香港 / 中国大陆
◎类  别 动作 / 犯罪
◎语  言 粤语 / 汉语普通话 / 日语
◎上映日期 2023-12-08(中国大陆)
◎IMDb评分 6.6/10 (72人评价)
◎IMDb链接 https://www.imdb.com/title/tt29632851/
◎豆瓣评分 6.1/10 (24511人评价)
◎豆瓣链接 https://movie.douban.com/subject/36010136/
◎片  长 138分钟 / 139分钟(中国香港)
◎导  演 林超贤 Dante Lam
       唐唯瀚 Wai-Hon Tong
◎编  剧 林超贤 Dante Lam
       唐耀良 Yiu-leung Tong
       王圣博 Shengbo Wang
◎演  员 张家辉 Nick Cheung
       陈伟霆 William Chan
       梁洛施 Isabella Leong
       谭俊彦 Shaun Tam
       姜皓文 Philip Keung Ho-Man
       周秀娜 Chrissie Chaw
       杨祐宁 Yo Yang
       戴耀明 Yiu-Ming Dia
       黄又南 You-Nam Wong
       李凯贤 Brian Lee
       张颕康 Wing-Hong Cheung
       朱鉴然 Kevin Kam-Yin Chu
       杨天宇 Angus Yeung
       张文杰 Man Kit Cheung
       丘梓谦 Ivan Yau
       许恩怡 Natalie Hsu
       麦子乐 Bryant Ji-Lok Mak
       李文标 Man Biu Lee
       苏宸褕 Kumer So
       周汉宁 Henick Chou
       施祖男 Vincent Sze
       李明宪 Akinori Lee
       温绍平 Jordan Voon
       吴瑞庭 Shui Ting Ng
       卢惠光 Ken Lo
       唐诗咏 Natalie Tong
       张雷 Mark Cheung Lui
       张慧仪 Angie Cheung
       胡子彤 Tony Tsz-Tung Wu
       黎峻 Kenneth Lai
       洪助升 Aiden Hung
       张国强 Kwok Keung Cheung
◎简  介
    缉毒总督察李振邦(张家辉 饰)和卧底警员江铭(陈伟霆 饰)秘密执行追捕毒贩计划,无奈遭遇险境,江铭被迫游走黑白边缘,逐渐失控。为坚守底线,昔日队友互生杀意。猜忌、愤怒、疯狂、失望……全员丧失理智,濒临崩溃边缘!
点击图片可查看大图
软字幕无法在截图上展现,HDR版本/杜比视界版本截图会出现颜色异常,请使用支持的设备播放!
##### MediaInfo ######
General
Unique ID                                : 60494073762297300900191884164282747839 (0x2D82BC1C9E3D1EEF6CBBEAED72288BBF)
Complete name                            : Bursting.Point.2023.2160p.WEB-DL.H265.120fps.DDP5.1.2Audio-DreamHD.mkv
Duration                                 : 2 h 18 min
Overall bit rate                         : 10.4 Mb/s
Video
ID                                       : 1
Format                                   : HEVC
Format/Info                              : High Efficiency Video Coding
Format profile                           : Main [email protected]@Main
Codec ID                                 : V_MPEGH/ISO/HEVC
Duration                                 : 2 h 18 min
Bit rate                                 : 8 511 kb/s
Width                                    : 3 840 pixels
Height                                   : 1 616 pixels
Display aspect ratio                     : 2.40:1
Frame rate mode                          : Variable
Frame rate                               : 120.000 FPS
Color space                              : YUV
Chroma subsampling                       : 4:2:0
Bit depth                                : 10 bits
Bits/(Pixel*Frame)                       : 0.011
Stream size                              : 8.21 GiB (82%)
Default                                  : Yes
Forced                                   : No
Color range                              : Limited
Color primaries                          : BT.709
Transfer characteristics                 : BT.709
Matrix coefficients                      : BT.709
Audio #1
ID                                       : 2
Format                                   : E-AC-3
Format/Info                              : Enhanced AC-3
Commercial name                          : Dolby Digital Plus
Codec ID                                 : A_EAC3
Duration                                 : 2 h 18 min
Bit rate mode                            : Constant
Bit rate                                 : 448 kb/s
Channel(s)                               : 6 channels
Channel layout                           : L R C LFE Ls Rs
Sampling rate                            : 48.0 kHz
Frame rate                               : 31.250 FPS (1536 SPF)
Compression mode                         : Lossy
Stream size                              : 442 MiB (4%)
Title                                    : Cantonese [DDP5.1]
Language                                 : Chinese
Service kind                             : Complete Main
Default                                  : Yes
Forced                                   : No
Audio #2
ID                                       : 3
Format                                   : E-AC-3
Format/Info                              : Enhanced AC-3
Commercial name                          : Dolby Digital Plus
Codec ID                                 : A_EAC3
Duration                                 : 2 h 18 min
Bit rate mode                            : Constant
Bit rate                                 : 448 kb/s
Channel(s)                               : 6 channels
Channel layout                           : L R C LFE Ls Rs
Sampling rate                            : 48.0 kHz
Frame rate                               : 31.250 FPS (1536 SPF)
Compression mode                         : Lossy
Stream size                              : 442 MiB (4%)
Title                                    : Mandarin [DDP5.1]
Language                                 : Chinese
Service kind                             : Complete Main
Default                                  : No
Forced                                   : No
Audio #3
ID                                       : 4
Format                                   : E-AC-3
Format/Info                              : Enhanced AC-3
Commercial name                          : Dolby Digital Plus
Codec ID                                 : A_EAC3
Duration                                 : 2 h 18 min
Bit rate mode                            : Constant
Bit rate                                 : 256 kb/s
Channel(s)                               : 2 channels
Channel layout                           : L R
Sampling rate                            : 48.0 kHz
Frame rate                               : 31.250 FPS (1536 SPF)
Bit depth                                : 32 bits
Compression mode                         : Lossy
Stream size                              : 253 MiB (2%)
Title                                    : Cantonese [DDP2.0]
Language                                 : Chinese
Service kind                             : Complete Main
Default                                  : No
Forced                                   : No
Audio #4
ID                                       : 5
Format                                   : E-AC-3
Format/Info                              : Enhanced AC-3
Commercial name                          : Dolby Digital Plus
Codec ID                                 : A_EAC3
Duration                                 : 2 h 18 min
Bit rate mode                            : Constant
Bit rate                                 : 256 kb/s
Channel(s)                               : 2 channels
Channel layout                           : L R
Sampling rate                            : 48.0 kHz
Frame rate                               : 31.250 FPS (1536 SPF)
Bit depth                                : 32 bits
Compression mode                         : Lossy
Stream size                              : 253 MiB (2%)
Title                                    : Mandarin [DDP2.0]
Language                                 : Chinese
Service kind                             : Complete Main
Default                                  : No
Forced                                   : No
Audio #5
ID                                       : 6
Format                                   : AAC LC
Format/Info                              : Advanced Audio Codec Low Complexity
Codec ID                                 : A_AAC-2
Duration                                 : 2 h 18 min
Bit rate                                 : 256 kb/s
Channel(s)                               : 2 channels
Channel layout                           : L R
Sampling rate                            : 44.1 kHz
Frame rate                               : 43.066 FPS (1024 SPF)
Compression mode                         : Lossy
Stream size                              : 253 MiB (2%)
Title                                    : Cantonese [AAC2.0]
Language                                 : Chinese
Default                                  : No
Forced                                   : No
Audio #6
ID                                       : 7
Format                                   : AAC LC
Format/Info                              : Advanced Audio Codec Low Complexity
Codec ID                                 : A_AAC-2
Duration                                 : 2 h 18 min
Bit rate                                 : 256 kb/s
Channel(s)                               : 2 channels
Channel layout                           : L R
Sampling rate                            : 44.1 kHz
Frame rate                               : 43.066 FPS (1024 SPF)
Compression mode                         : Lossy
Stream size                              : 253 MiB (2%)
Title                                    : Mandarin [AAC2.0]
Language                                 : Chinese
Default                                  : No
Forced                                   : No
部分资源为软字幕,移动端推荐播放器:MxPlayer,nPlayer,infuse ,其他播放器请自行尝试。
部分资源为软字幕,电脑端推荐播放器:PotPlayer,完美解码,KMPLAYER,其他播放器请自行尝试。






~~~~~~~~~~~~~~~~~~~~~~~~~~~~~~~~~~~~~~~~~
[2023][香港][动作][WEB-4K]爆裂点[120帧率版本][国粤多音轨/中文字幕].Bursting.Point.2023.2160p.WEB-DL.H265.120fps.DDP5.1.2Au

【文件列表】:


Bursting.Point.2023.2160p.WEB-DL.H265.120fps.DDP5.1.2Audio-DreamHD.



【下载地址列表】:


游客
文件下载链接就在这里,在您回复评论成功后才能显示。
请勿回复无意义的灌水内容。


下拉页面到最底部回复或者【点击此处快捷回复】,回复后返回此处即可查看下载链接。
如您没注册本站会员,可以点击注册本站,注册后即可回复下载。



软字幕无法在截图上展现,HDR版本/杜比视界版本截图会出现颜色异常,请使用支持的设备播放!






[img][/img]






[img][/img]

(HDR版本/杜比视界版本,截图会出现颜色异常,请使用支持的设备播放)

小贴士:【影视自媒体解说文案请移步:夏至文案解说网 www.xiazhi.vip

上一篇:[2015][欧美][动作][WEB-4K]饥饿游戏3:嘲笑鸟(下)[国英多音轨/中文字幕/特效字幕].2015.Bluray.2160p.TrueHD7.1.HDR.x265.10bit-
下一篇:[2015][其它][剧情][WEB-4K]最后一杯酒[60帧率版本][中文字幕].One.for.the.Road.2015.2160p.WEB-DL.H265.60fps.AAC- 4.
回复

使用道具 举报

您需要登录后才可以回帖 登录 | 立即注册

本版积分规则

Archiver|手机版|小众纪录片影视聚合

GMT+8, 2024-7-16 23:55 , Processed in 0.076029 second(s), 13 queries , Gzip On, Redis On.

Powered by 小众纪录片影视聚合 @2010-2023

Copyright © 2010-2024, https://www.xzjlp.com/.


免责说明:本站所有内容链接、图文介绍等均来自于互联网网友分享,本站仅支持web页面展示和文字介绍,绝不提供在线观看和存储服务,也不参与录制、上传、压片。若本站收录内容无意侵犯贵司版权,请发邮件到【a885185#163.com】联系本站,我们将在第一时间删除侵权内容。谢谢!

快速回复 返回顶部 返回列表