小众纪录片影视聚合

 找回密码
 立即注册
查看: 10|回复: 0

[蓝光电影] [2014][欧美][动作][WEB-1080P]不速之客[国英多音轨/中文字幕].The.Guest.2014.1080p.WEB-DL.H265.AAC.2Audio- 1.39GB

[复制链接]

113万

主题

113万

帖子

113万

积分

超级版主

Rank: 8Rank: 8

积分
1134816
发表于 2024-7-9 21:15:36 | 显示全部楼层 |阅读模式


[2014][欧美][动作][WEB-1080P]不速之客[国英多音轨/中文字幕].The.Guest.2014.1080p.WEB-DL.H265.AAC.2Audio- 1.39GB

完整标题:不速之客[国英多音轨/中文字幕].The.Guest.2014.1080p.WEB-DL.H265.AAC.2Audio-DreamHD 1.39GB
◎标  题 不速之客
◎片  名 The Guest
◎年  代 2014
◎产  地 美国
◎类  别 动作 / 悬疑 / 惊悚
◎语  言 英语
◎上映日期 2014-09-17(美国)
◎IMDb评分 6.7/10 (102454人评价)
◎IMDb链接 https://www.imdb.com/title/tt2980592/
◎豆瓣评分 6.4/10 (11289人评价)
◎豆瓣链接 https://movie.douban.com/subject/25721544/
◎片  长 99分钟
◎导  演 亚当·温加德 Adam Wingard
◎编  剧 西蒙·巴雷特 Simon Barrett
◎演  员 丹·史蒂文斯 Dan Stevens
       麦卡·梦露 Maika Monroe
       布雷丹·梅耶尔 Brendan Meyer
       谢拉·柯雷 Sheila Kelley
       利兰·奥瑟 Leland Orser
       兰斯·莱迪克 Lance Reddick
       塔別孚肖恩 Tabatha Shaun
       蔡斯·威廉逊 Chase Williamson
       乔·大卫·摩尔  Joel David Moore
       Stephen Brown Stephen Brown
       布兰登·韦德纳 Brenden Wedner
       亚历克斯·奈特 Alex Knight
       伊桑·恩布里 Ethan Embry
       Nancy Jeris Nancy Jeris
       马修·佩奇 Matthew Page
       史蒂夫·约翰·布朗 Steven John Brown
       凯蒂·安妮·米切尔 Katie Anne Mitchell
       坎迪斯·帕顿 Candice Patton
       杰西·卢肯 Jesse Luken
◎简  介
    一位退役归来的士兵与刚在战场上痛失长子的一家人结为朋友,相通的经历让他们的感情维系日益增强,士兵成为了这家人的贵客。然而这家人很快发现,士兵的真实身份并不像他所说的那样……via.张咏轩
点击图片可查看大图
软字幕无法在截图上展现,HDR版本/杜比视界版本截图会出现颜色异常,请使用支持的设备播放!
##### MediaInfo ######
General
Unique ID                                : 17498803060233962043270503676867187733 (0xD2A2599F5451FBB8D64393D8E271415)
Complete name                            : The.Guest.2014.1080p.WEB-DL.H265.AAC.2Audio-DreamHD.mkv
Duration                                 : 1 h 34 min
Overall bit rate                         : 2 093 kb/s
Video
ID                                       : 1
Format                                   : HEVC
Format/Info                              : High Efficiency Video Coding
Format profile                           : Main@L4@Main
Codec ID                                 : V_MPEGH/ISO/HEVC
Duration                                 : 1 h 34 min
Bit rate                                 : 1 710 kb/s
Width                                    : 1 920 pixels
Height                                   : 800 pixels
Display aspect ratio                     : 2.40:1
Frame rate mode                          : Constant
Frame rate                               : 24.000 FPS
Color space                              : YUV
Chroma subsampling                       : 4:2:0
Bit depth                                : 8 bits
Bits/(Pixel*Frame)                       : 0.046
Stream size                              : 1.13 GiB (82%)
Default                                  : Yes
Forced                                   : No
Color range                              : Limited
Audio #1
ID                                       : 2
Format                                   : AAC LC
Format/Info                              : Advanced Audio Codec Low Complexity
Codec ID                                 : A_AAC-2
Duration                                 : 1 h 34 min
Bit rate                                 : 192 kb/s
Channel(s)                               : 2 channels
Channel layout                           : L R
Sampling rate                            : 44.1 kHz
Frame rate                               : 43.066 FPS (1024 SPF)
Compression mode                         : Lossy
Stream size                              : 129 MiB (9%)
Title                                    : [AAC2.0]
Language                                 : English
Default                                  : Yes
Forced                                   : No
Audio #2
ID                                       : 3
Format                                   : AAC LC
Format/Info                              : Advanced Audio Codec Low Complexity
Codec ID                                 : A_AAC-2
Duration                                 : 1 h 34 min
Bit rate                                 : 192 kb/s
Channel(s)                               : 2 channels
Channel layout                           : L R
Sampling rate                            : 44.1 kHz
Frame rate                               : 43.066 FPS (1024 SPF)
Compression mode                         : Lossy
Stream size                              : 129 MiB (9%)
Title                                    : Mandarin [AAC2.0]
Language                                 : Chinese
Default                                  : No
Forced                                   : No
部分资源为软字幕,移动端推荐播放器:MxPlayer,nPlayer,infuse ,其他播放器请自行尝试。
部分资源为软字幕,电脑端推荐播放器:PotPlayer,完美解码,KMPLAYER,其他播放器请自行尝试。






~~~~~~~~~~~~~~~~~~~~~~~~~~~~~~~~~~~~~~~~~
[2014][欧美][动作][WEB-1080P]不速之客[国英多音轨/中文字幕].The.Guest.2014.1080p.WEB-DL.H265.AAC.2Audio- 1.39GB

【文件列表】:


The.Guest.2014.1080p.WEB-DL.H265.AAC.2Audio-DreamHD.



【下载地址列表】:


游客
文件下载链接就在这里,在您回复评论成功后才能显示。
请勿回复无意义的灌水内容。


下拉页面到最底部回复或者【点击此处快捷回复】,回复后返回此处即可查看下载链接。
如您没注册本站会员,可以点击注册本站,注册后即可回复下载。



软字幕无法在截图上展现,HDR版本/杜比视界版本截图会出现颜色异常,请使用支持的设备播放!






[img][/img]






[img][/img]

(HDR版本/杜比视界版本,截图会出现颜色异常,请使用支持的设备播放)

小贴士:【影视自媒体解说文案请移步:夏至文案解说网 www.xiazhi.vip

上一篇:[更 早][欧美][动作][BD-1080P]勇闯夺命岛[国语配音/中文字幕/特效字幕].The.Rock.1996.BluRay.1080p.AAC2.0.x264- 4.01GB
下一篇:[2016][其它][剧情][WEB-1080P]群狗[中文字幕].Dogs.2016.1080p.CATCHPLAY.WEB-DL.AAC2.0.H.264- 3.00GB
回复

使用道具 举报

您需要登录后才可以回帖 登录 | 立即注册

本版积分规则

Archiver|手机版|小众纪录片影视聚合

GMT+8, 2024-7-22 07:22 , Processed in 0.291807 second(s), 13 queries , Gzip On, Redis On.

Powered by 小众纪录片影视聚合 @2010-2023

Copyright © 2010-2024, https://www.xzjlp.com/.


免责说明:本站所有内容链接、图文介绍等均来自于互联网网友分享,本站仅支持web页面展示和文字介绍,绝不提供在线观看和存储服务,也不参与录制、上传、压片。若本站收录内容无意侵犯贵司版权,请发邮件到【a885185#163.com】联系本站,我们将在第一时间删除侵权内容。谢谢!

快速回复 返回顶部 返回列表