小众纪录片影视聚合

 找回密码
 立即注册
查看: 4|回复: 0

[蓝光电影] [2016][其它][剧情][WEB-1080P]群狗[中文字幕].Dogs.2016.1080p.CATCHPLAY.WEB-DL.AAC2.0.H.264- 3.00GB

[复制链接]

110万

主题

110万

帖子

110万

积分

超级版主

Rank: 8Rank: 8

积分
1100368
发表于 4 天前 | 显示全部楼层 |阅读模式


[2016][其它][剧情][WEB-1080P]群狗[中文字幕].Dogs.2016.1080p.CATCHPLAY.WEB-DL.AAC2.0.H.264- 3.00GB

完整标题:群狗[中文字幕].Dogs.2016.1080p.CATCHPLAY.WEB-DL.AAC2.0.H.264-DreamHD 3.00GB
◎标  题 群狗
◎译  名 陌路狂犬(台) / Dogs
◎片  名 Câini
◎年  代 2016
◎产  地 罗马尼亚 / 法国 / 保加利亚 / 卡塔尔
◎类  别 剧情
◎语  言 罗马尼亚语
◎上映日期 2016-05-15(戛纳电影节)
◎IMDb链接 https://www.imdb.com/title/tt5088794/
◎豆瓣评分 5.7/10 (278人评价)
◎豆瓣链接 https://movie.douban.com/subject/26728042/
◎片  长 104分钟
◎导  演 博格丹·米里察 Bogdan Mirică
◎编  剧 博格丹·米里察 Bogdan Mirică
◎演  员 德拉戈什·布库尔 Dragos Bucur
       格奥尔基·维苏 Gheorghe Visu
       弗拉德·伊凡诺夫 Vlad Ivanov
       科斯特尔·卡斯卡韦尔 Costel Cascaval
       拉卢卡·阿普罗杜 Raluca Aprodu
       巴莱里·约尔丹诺夫 Valeri Yordanov
       柯尔尼留·卡兹麦 Corneliu Cozmei
       埃米利安·奥普雷亚 Emilian Oprea
       卡塔林·帕拉斯契夫 Catalin Paraschiv
◎简  介
    罗曼回到了那块邻近乌克兰边境的土地---这块地是他刚从祖父那里继承来的。他决定卖掉这个寸草不生的地产,但被一帮当地黑社会的人所警告,因为他的祖父曾是这帮人的首领。他们绝不会就此放弃这片土地---以及他们的走私产业---更不会束手就擒。
点击图片可查看大图
软字幕无法在截图上展现,HDR版本/杜比视界版本截图会出现颜色异常,请使用支持的设备播放!
##### MediaInfo ######
General
Unique ID                                : 41300213140472031836694840453602119788 (0x1F1221B8618A4213633253F99C76906C)
Complete name                            : Dogs.2016.1080p.CATCHPLAY.WEB-DL.AAC2.0.H.264-DreamHD.mkv
Duration                                 : 1 h 44 min
Overall bit rate mode                    : Variable
Overall bit rate                         : 4 123 kb/s
Video
ID                                       : 1
Format                                   : AVC
Format/Info                              : Advanced Video Codec
Format profile                           : [email protected]
Format settings                          : CABAC / 4 Ref Frames
Format settings, CABAC                   : Yes
Format settings, Reference frames        : 4 frames
Format settings, GOP                     : M=3, N=48
Codec ID                                 : V_MPEG4/ISO/AVC
Duration                                 : 1 h 44 min
Bit rate mode                            : Variable
Bit rate                                 : 3 992 kb/s
Maximum bit rate                         : 6 000 kb/s
Width                                    : 1 920 pixels
Height                                   : 1 080 pixels
Display aspect ratio                     : 16:9
Frame rate mode                          : Constant
Frame rate                               : 24.000 FPS
Color space                              : YUV
Chroma subsampling                       : 4:2:0
Bit depth                                : 8 bits
Scan type                                : Progressive
Bits/(Pixel*Frame)                       : 0.080
Stream size                              : 2.90 GiB (97%)
Language                                 : Romanian
Default                                  : Yes
Forced                                   : No
Audio
ID                                       : 2
Format                                   : AAC LC
Format/Info                              : Advanced Audio Codec Low Complexity
Codec ID                                 : A_AAC-2
Duration                                 : 1 h 44 min
Bit rate                                 : 128 kb/s
Channel(s)                               : 2 channels
Channel layout                           : L R
Sampling rate                            : 48.0 kHz
Frame rate                               : 46.875 FPS (1024 SPF)
Compression mode                         : Lossy
Stream size                              : 95.7 MiB (3%)
Language                                 : Romanian
Default                                  : Yes
Forced                                   : No
部分资源为软字幕,移动端推荐播放器:MxPlayer,nPlayer,infuse ,其他播放器请自行尝试。
部分资源为软字幕,电脑端推荐播放器:PotPlayer,完美解码,KMPLAYER,其他播放器请自行尝试。






~~~~~~~~~~~~~~~~~~~~~~~~~~~~~~~~~~~~~~~~~
[2016][其它][剧情][WEB-1080P]群狗[中文字幕].Dogs.2016.1080p.CATCHPLAY.WEB-DL.AAC2.0.H.264- 3.00GB

【文件列表】:


Dogs.2016.1080p.CATCHPLAY.WEB-DL.AAC2.0.H.264-DreamHD.



【下载地址列表】:


游客
文件下载链接就在这里,在您回复评论成功后才能显示。
请勿回复无意义的灌水内容。


下拉页面到最底部回复或者【点击此处快捷回复】,回复后返回此处即可查看下载链接。
如您没注册本站会员,可以点击注册本站,注册后即可回复下载。



软字幕无法在截图上展现,HDR版本/杜比视界版本截图会出现颜色异常,请使用支持的设备播放!






[img][/img]






[img][/img]

(HDR版本/杜比视界版本,截图会出现颜色异常,请使用支持的设备播放)

小贴士:【影视自媒体解说文案请移步:夏至文案解说网 www.xiazhi.vip

上一篇:[2014][欧美][动作][WEB-1080P]不速之客[国英多音轨/中文字幕].The.Guest.2014.1080p.WEB-DL.H265.AAC.2Audio- 1.39GB
下一篇:[2012][欧美][剧情][WEB-1080P]警戒结束[无字片源].End.of.Watch.2012.1080p.Paramount/.WEB-DL.DDP.5.1.H.264- 3.52G
回复

使用道具 举报

您需要登录后才可以回帖 登录 | 立即注册

本版积分规则

Archiver|手机版|小众纪录片影视聚合

GMT+8, 2024-7-13 00:49 , Processed in 0.147529 second(s), 12 queries , Gzip On, Redis On.

Powered by 小众纪录片影视聚合 @2010-2023

Copyright © 2010-2024, https://www.xzjlp.com/.


免责说明:本站所有内容链接、图文介绍等均来自于互联网网友分享,本站仅支持web页面展示和文字介绍,绝不提供在线观看和存储服务,也不参与录制、上传、压片。若本站收录内容无意侵犯贵司版权,请发邮件到【a885185#163.com】联系本站,我们将在第一时间删除侵权内容。谢谢!

快速回复 返回顶部 返回列表