小众纪录片影视聚合

 找回密码
 立即注册
查看: 9|回复: 0

[蓝光电影] [2022][台湾][喜剧][BD-1080P]关于我和鬼变成家人的那件事[国语音轨/简繁英字幕].Marry.My.Dead.Body.2022.1080p.BluRay.x264.DTS- 1

[复制链接]

109万

主题

109万

帖子

109万

积分

超级版主

Rank: 8Rank: 8

积分
1099228
发表于 4 天前 | 显示全部楼层 |阅读模式


[2022][台湾][喜剧][BD-1080P]关于我和鬼变成家人的那件事[国语音轨/简繁英字幕].Marry.My.Dead.Body.2022.1080p.BluRay.x264.DTS- 1

完整标题:关于我和鬼变成家人的那件事[国语音轨/简繁英字幕].Marry.My.Dead.Body.2022.1080p.BluRay.x264.DTS-SONYHD 14.70GB
◎标  题 关于我和鬼变成家人的那件事
◎译  名 Marry My Dead Body / 鬼家人
◎片  名 關於我和鬼變成家人的那件事
◎年  代 2022
◎产  地 中国台湾
◎类  别 喜剧 / 悬疑 / 同性 / 奇幻
◎语  言 汉语普通话 / 闽南语
◎上映日期 2023-02-10(中国台湾) / 2023-08-10(中国台湾网络) / 2022-11-17(台北金马影展)
◎IMDb评分 7.1/10 (4817人评价)
◎IMDb链接 https://www.imdb.com/title/tt22742964/
◎豆瓣评分 8.1/10 (366769人评价)
◎豆瓣链接 https://movie.douban.com/subject/35698284/
◎片  长 130分钟
◎导  演 程伟豪 Wei-hao Cheng
◎编  剧 吴瑾蓉 Sharon Wu
       程伟豪 Wei-hao Cheng
       赖致良 Zhiliang Lai
◎演  员 许光汉 Greg Hsu
       林柏宏 Austin Lin
       王净 Gingle Wang
       蔡振南 Chen-Nan Tsai
       王满娇 Maam chio Wang
       庹宗华 Chung-Hua Tou
       马念先 Nien-Hsien Ma
       郑志伟 Chih-Wei Cheng
       李至正 Chris Lee
       陈彦佐 Yen-Tso Chen
       张再兴 Tsai-Hsing Chang
       刘冠廷 Kuan-ting Liu
       炎亚纶 Aaron
       唐纶 Dean Tong
       蔡哲文 Che Wen Tsai
       邱永腾 Cliff Cho
       林鹤轩 He-Hsuan Lin
       巫书维 Shu Wei Wu
◎简  介
    吴明翰(许光汉 饰)是一名脾气耿直的警察,一次在出警中,他偶然捡到了地上的红包,哪知道被牵扯到了一桩冥婚之中,而他要结婚的对象,竟然是名叫毛邦羽(林柏宏 饰)的男人。吴明翰虽然内心一百个不情愿,但很快他就发现,如果不完婚,那么坏运气会一直跟随着他,无奈之下,吴明翰只得在灵堂中和毛邦宇举行了仪式。                                    第二天,毛邦宇的鬼魂出现在了吴明翰的面前,想要结束这场荒唐的闹剧,吴明翰必须帮助毛邦宇完成遗愿,他给动物慈善组织捐款、去探望毛邦宇在世时的男友、查找导致毛邦宇死亡的车祸事件真相,在此过程中,吴明翰和毛邦宇从“假夫妻”变成了“真朋友”。
点击图片可查看大图
软字幕无法在截图上展现,HDR版本/杜比视界版本截图会出现颜色异常,请使用支持的设备播放!
##### MediaInfo ######
General
Unique ID                                : 321081874812576016750618109910558813497 (0xF18E1EA6A2A52D70DA5E713543F9AD39)
Complete name                            : Marry.My.Dead.Body.2022.1080p.BluRay.x264.DTS-SONYHD.mkv
Duration                                 : 2 h 9 min
Overall bit rate                         : 16.3 Mb/s
Video
ID                                       : 1
Format                                   : AVC
Format/Info                              : Advanced Video Codec
Format profile                           : [email protected]
Format settings                          : CABAC / 4 Ref Frames
Format settings, CABAC                   : Yes
Format settings, Reference frames        : 4 frames
Codec ID                                 : V_MPEG4/ISO/AVC
Duration                                 : 2 h 9 min
Bit rate                                 : 14.7 Mb/s
Width                                    : 1 920 pixels
Height                                   : 804 pixels
Display aspect ratio                     : 2.40:1
Frame rate mode                          : Constant
Frame rate                               : 24.000 FPS
Color space                              : YUV
Chroma subsampling                       : 4:2:0
Bit depth                                : 8 bits
Scan type                                : Progressive
Bits/(Pixel*Frame)                       : 0.397
Stream size                              : 13.3 GiB (90%)
Writing library                          : x264 core 164 r3085+55M 938b6d0 t_mod_New [(8 & 10)-bit@all X86_64]
Encoding settings                        : cabac=1 / ref=4 / deblock=1:-3:-3 / analyse=0x3:0x133 / me=umh / subme=11 / psy=1 / fade_compensate=0.00 / psy_rd=1.00:0.00 / mixed_ref=1 / me_range=48 / chroma_me=1 / trellis=2 / 8x8dct=1 / cqm=0 / deadzone=21,11 / fast_pskip=0 / chroma_qp_offset=-3 / threads=25 / lookahead_threads=6 / sliced_threads=0 / nr=0 / decimate=0 / interlaced=0 / bluray_compat=0 / constrained_intra=0 / fgo=0 / bframes=11 / b_pyramid=2 / b_adapt=2 / b_bias=0 / direct=3 / weightb=1 / open_gop=0 / weightp=2 / keyint=240 / keyint_min=1 / scenecut=40 / intra_refresh=0 / rc_lookahead=72 / rc=crf / mbtree=0 / crf=16.2000 / qcomp=0.60 / qpmin=0:0:0 / qpmax=69:69:69 / qpstep=4 / vbv_maxrate=62500 / vbv_bufsize=78125 / crf_max=0.0 / nal_hrd=none / filler=0 / ip_ratio=1.40 / pb_ratio=1.30 / aq=3:0.80 / aq-sensitivity=10.00 / aq-factor=1.00:1.00:1.00 / aq2=0 / aq3=0
Language                                 : English
Default                                  : Yes
Forced                                   : No
Audio
ID                                       : 2
ID in the original source medium         : 4352 (0x1100)
Format                                   : DTS
Format/Info                              : Digital Theater Systems
Codec ID                                 : A_DTS
Duration                                 : 2 h 9 min
Bit rate mode                            : Constant
Bit rate                                 : 1 509 kb/s
Channel(s)                               : 6 channels
Channel layout                           : C L R Ls Rs LFE
Sampling rate                            : 48.0 kHz
Frame rate                               : 93.750 FPS (512 SPF)
Bit depth                                : 16 bits
Compression mode                         : Lossy
Stream size                              : 1.36 GiB (9%)
Language                                 : Chinese
Default                                  : Yes
Forced                                   : No
Original source medium                   : Blu-ray
Text #1
ID                                       : 3
ID in the original source medium         : 4610 (0x1202)
Format                                   : PGS
Muxing mode                              : zlib
Codec ID                                 : S_HDMV/PGS
Codec ID/Info                            : Picture based subtitle format used on BDs/HD-DVDs
Duration                                 : 2 h 3 min
Bit rate                                 : 25.8 kb/s
Frame rate                               : 0.497 FPS
Count of elements                        : 3684
Stream size                              : 22.8 MiB (0%)
Title                                    : chs
Language                                 : Chinese
Default                                  : Yes
Forced                                   : No
Original source medium                   : Blu-ray
Text #2
ID                                       : 4
ID in the original source medium         : 4611 (0x1203)
Format                                   : PGS
Muxing mode                              : zlib
Codec ID                                 : S_HDMV/PGS
Codec ID/Info                            : Picture based subtitle format used on BDs/HD-DVDs
Duration                                 : 2 h 3 min
Bit rate                                 : 26.1 kb/s
Frame rate                               : 0.497 FPS
Count of elements                        : 3684
Stream size                              : 23.1 MiB (0%)
Title                                    : cht
Language                                 : Chinese
Default                                  : No
Forced                                   : No
Original source medium                   : Blu-ray
Text #3
ID                                       : 5
ID in the original source medium         : 4608 (0x1200)
Format                                   : PGS
Muxing mode                              : zlib
Codec ID                                 : S_HDMV/PGS
Codec ID/Info                            : Picture based subtitle format used on BDs/HD-DVDs
Duration                                 : 2 h 2 min
Bit rate                                 : 32.7 kb/s
Frame rate                               : 0.522 FPS
Count of elements                        : 3822
Stream size                              : 28.6 MiB (0%)
Title                                    : 原盘繁体
Language                                 : Chinese
Default                                  : No
Forced                                   : No
Original source medium                   : Blu-ray
Text #4
ID                                       : 6
ID in the original source medium         : 4609 (0x1201)
Format                                   : PGS
Muxing mode                              : zlib
Codec ID                                 : S_HDMV/PGS
Codec ID/Info                            : Picture based subtitle format used on BDs/HD-DVDs
Duration                                 : 2 h 2 min
Bit rate                                 : 35.2 kb/s
Frame rate                               : 0.522 FPS
Count of elements                        : 3822
Stream size                              : 30.8 MiB (0%)
Language                                 : English
Default                                  : No
Forced                                   : No
Original source medium                   : Blu-ray
Menu
00:00:00.000                             : en:Chapter 01
00:10:46.208                             : en:Chapter 02
00:20:34.083                             : en:Chapter 03
00:31:37.583                             : en:Chapter 04
00:43:45.750                             : en:Chapter 05
00:53:40.708                             : en:Chapter 06
01:05:34.833                             : en:Chapter 07
01:15:32.000                             : en:Chapter 08
01:25:31.333                             : en:Chapter 09
01:34:13.166                             : en:Chapter 10
01:40:39.875                             : en:Chapter 11
01:50:12.500                             : en:Chapter 12
部分资源为软字幕,移动端推荐播放器:MxPlayer,nPlayer,infuse ,其他播放器请自行尝试。
部分资源为软字幕,电脑端推荐播放器:PotPlayer,完美解码,KMPLAYER,其他播放器请自行尝试。






~~~~~~~~~~~~~~~~~~~~~~~~~~~~~~~~~~~~~~~~~
[2022][台湾][喜剧][BD-1080P]关于我和鬼变成家人的那件事[国语音轨/简繁英字幕].Marry.My.Dead.Body.2022.1080p.BluRay.x264.DTS- 1

【文件列表】:


Marry.My.Dead.Body.2022.1080p.BluRay.x264.DTS-SONYHD.



【下载地址列表】:


游客
文件下载链接就在这里,在您回复评论成功后才能显示。
请勿回复无意义的灌水内容。


下拉页面到最底部回复或者【点击此处快捷回复】,回复后返回此处即可查看下载链接。
如您没注册本站会员,可以点击注册本站,注册后即可回复下载。



软字幕无法在截图上展现,HDR版本/杜比视界版本截图会出现颜色异常,请使用支持的设备播放!






[img][/img]






[img][/img]

(HDR版本/杜比视界版本,截图会出现颜色异常,请使用支持的设备播放)

小贴士:【影视自媒体解说文案请移步:夏至文案解说网 www.xiazhi.vip

上一篇:[2023][欧美][喜剧][WEB-4K]飞鸭向前冲[HDR/杜比视界双版本][国英多音轨/简繁英字幕].Migration.2023.2160p.UHD.BluRay.x265.10bit.DV.Tr
下一篇:[2022][台湾][喜剧][BD-1080P]关于我和鬼变成家人的那件事[国语音轨/简繁英字幕].Marry.My.Dead.Body.2022.1080p.BluRay.x265.10bit.DTS-SO
回复

使用道具 举报

您需要登录后才可以回帖 登录 | 立即注册

本版积分规则

Archiver|手机版|小众纪录片影视聚合

GMT+8, 2024-7-13 00:18 , Processed in 0.215799 second(s), 13 queries , Gzip On, Redis On.

Powered by 小众纪录片影视聚合 @2010-2023

Copyright © 2010-2024, https://www.xzjlp.com/.


免责说明:本站所有内容链接、图文介绍等均来自于互联网网友分享,本站仅支持web页面展示和文字介绍,绝不提供在线观看和存储服务,也不参与录制、上传、压片。若本站收录内容无意侵犯贵司版权,请发邮件到【a885185#163.com】联系本站,我们将在第一时间删除侵权内容。谢谢!

快速回复 返回顶部 返回列表