小众纪录片影视聚合

 找回密码
 立即注册
查看: 11|回复: 0

[蓝光电影] [2022][台湾][喜剧][BD-1080P]关于我和鬼变成家人的那件事[国语音轨/简繁英字幕].Marry.My.Dead.Body.2022.1080p.BluRay.x265.10bit.DTS-SO

[复制链接]

116万

主题

116万

帖子

116万

积分

超级版主

Rank: 8Rank: 8

积分
1167997
发表于 2024-7-9 21:16:02 | 显示全部楼层 |阅读模式


[2022][台湾][喜剧][BD-1080P]关于我和鬼变成家人的那件事[国语音轨/简繁英字幕].Marry.My.Dead.Body.2022.1080p.BluRay.x265.10bit.DTS-SO

完整标题:关于我和鬼变成家人的那件事[国语音轨/简繁英字幕].Marry.My.Dead.Body.2022.1080p.BluRay.x265.10bit.DTS-SONYHD 7.21GB
◎标  题 关于我和鬼变成家人的那件事
◎译  名 Marry My Dead Body / 鬼家人
◎片  名 關於我和鬼變成家人的那件事
◎年  代 2022
◎产  地 中国台湾
◎类  别 喜剧 / 悬疑 / 同性 / 奇幻
◎语  言 汉语普通话 / 闽南语
◎上映日期 2023-02-10(中国台湾) / 2023-08-10(中国台湾网络) / 2022-11-17(台北金马影展)
◎IMDb评分 7.1/10 (4817人评价)
◎IMDb链接 https://www.imdb.com/title/tt22742964/
◎豆瓣评分 8.1/10 (366769人评价)
◎豆瓣链接 https://movie.douban.com/subject/35698284/
◎片  长 130分钟
◎导  演 程伟豪 Wei-hao Cheng
◎编  剧 吴瑾蓉 Sharon Wu
       程伟豪 Wei-hao Cheng
       赖致良 Zhiliang Lai
◎演  员 许光汉 Greg Hsu
       林柏宏 Austin Lin
       王净 Gingle Wang
       蔡振南 Chen-Nan Tsai
       王满娇 Maam chio Wang
       庹宗华 Chung-Hua Tou
       马念先 Nien-Hsien Ma
       郑志伟 Chih-Wei Cheng
       李至正 Chris Lee
       陈彦佐 Yen-Tso Chen
       张再兴 Tsai-Hsing Chang
       刘冠廷 Kuan-ting Liu
       炎亚纶 Aaron
       唐纶 Dean Tong
       蔡哲文 Che Wen Tsai
       邱永腾 Cliff Cho
       林鹤轩 He-Hsuan Lin
       巫书维 Shu Wei Wu
◎简  介
    吴明翰(许光汉 饰)是一名脾气耿直的警察,一次在出警中,他偶然捡到了地上的红包,哪知道被牵扯到了一桩冥婚之中,而他要结婚的对象,竟然是名叫毛邦羽(林柏宏 饰)的男人。吴明翰虽然内心一百个不情愿,但很快他就发现,如果不完婚,那么坏运气会一直跟随着他,无奈之下,吴明翰只得在灵堂中和毛邦宇举行了仪式。                                    第二天,毛邦宇的鬼魂出现在了吴明翰的面前,想要结束这场荒唐的闹剧,吴明翰必须帮助毛邦宇完成遗愿,他给动物慈善组织捐款、去探望毛邦宇在世时的男友、查找导致毛邦宇死亡的车祸事件真相,在此过程中,吴明翰和毛邦宇从“假夫妻”变成了“真朋友”。
点击图片可查看大图
软字幕无法在截图上展现,HDR版本/杜比视界版本截图会出现颜色异常,请使用支持的设备播放!
##### MediaInfo ######
General
Unique ID                                : 53550759297771612304859579283111469822 (0x28498047475276E3386116D18A64E2FE)
Complete name                            : Marry.My.Dead.Body.2022.1080p.BluRay.x265.10bit.DTS-SONYHD.mkv
Duration                                 : 2 h 9 min
Overall bit rate                         : 7 976 kb/s
Video
ID                                       : 1
Format                                   : HEVC
Format/Info                              : High Efficiency Video Coding
Format profile                           : Main 10@L4@Main
Codec ID                                 : V_MPEGH/ISO/HEVC
Duration                                 : 2 h 9 min
Bit rate                                 : 6 413 kb/s
Width                                    : 1 920 pixels
Height                                   : 804 pixels
Display aspect ratio                     : 2.40:1
Frame rate mode                          : Constant
Frame rate                               : 24.000 FPS
Color space                              : YUV
Chroma subsampling                       : 4:2:0
Bit depth                                : 10 bits
Bits/(Pixel*Frame)                       : 0.173
Stream size                              : 5.80 GiB (80%)
Writing library                          : x265 3.5g2b25c9ba0+45:[Windows][GCC 10.2.0][64 bit] Yuuki 10bit+8bit+12bit
Encoding settings                        : rc=crf / crf=15.2000 / qcomp=0.60 / qpstep=4 / stats-write=0 / stats-read=0 / no-lossless / no-cu-lossless / aq-mode=3 / aq-strength=0.80 / cbqpoffs=0 / crqpoffs=0 / ipratio=1.40 / pbratio=1.30 / psy-rd=2.00 / psy-rdoq=0.00 / deblock=0:0 / ref=6 / limit-refs=1 / no-limit-modes / bframes=8 / b-adapt=2 / bframe-bias=0 / b-pyramid / b-intra / weightp / weightb / min-keyint=24 / max-keyint=240 / rc-lookahead=24 / gop-lookahead=0 / scenecut=40 / hist-scenecut=0 / radl=0 / max-cu-size=64 / min-cu-size=8 / me=3 / subme=7 / merange=48 / rdoq-level=0 / rd=4 / rdpenalty=0 / dynamic-rd=0.00 / no-rd-refine / ----- / cutree / sao / no-rect / no-amp / no-open-gop / wpp / no-pmode / no-pme / no-psnr / no-ssim / nr-intra=0 / nr-inter=0 / no-constrained-intra / no-strong-intra-smoothing / max-tu-size=32 / tu-inter-depth=1 / tu-intra-depth=1 / limit-tu=0 / qg-size=32 / qpmax=69 / qpmin=0 / ----- / cpuid=1111039 / frame-threads=5 / numa-pools=+ / log-level=2 / input-csp=1 / input-res=1920x804 / interlace=0 / level-idc=0 / high-tier=1 / uhd-bd=0 / no-allow-non-conformance / no-repeat-headers / aud / no-hrd / info / hash=0 / no-temporal-layers / lookahead-slices=0 / no-splice / no-intra-refresh / no-ssim-rd / signhide / no-tskip / max-merge=3 / temporal-mvp / no-frame-dup / no-hme / no-analyze-src-pics / no-sao-non-deblock / selective-sao=4 / early-skip / rskip / no-fast-intra / no-tskip-fast / no-splitrd-skip / zone-count=0 / no-strict-cbr / no-rc-grain / no-const-vbv / sar=0 / overscan=0 / videoformat=5 / range=0 / colorprim=2 / transfer=2 / colormatrix=2 / chromaloc=0 / display-window=0 / cll=0,0 / min-luma=0 / max-luma=1023 / log2-max-poc-lsb=8 / vui-timing-info / vui-hrd-info / slices=1 / no-opt-qp-pps / no-opt-ref-list-length-pps / no-multi-pass-opt-rps / scenecut-bias=0.05 / hist-threshold=0.03 / no-opt-cu-delta-qp / no-aq-motion / no-hdr10 / no-hdr10-opt / no-dhdr10-opt / no-idr-recovery-sei / analysis-reuse-level=0 / analysis-save-reuse-level=0 / analysis-load-reuse-level=0 / scale-factor=0 / refine-intra=0 / refine-inter=0 / refine-mv=1 / refine-ctu-distortion=0 / no-limit-sao / ctu-info=0 / no-lowpass-dct / refine-analysis-type=0 / copy-pic=1 / max-ausize-factor=1.0 / no-dynamic-refine / no-single-sei / no-hevc-aq / no-svt / no-field / qp-adaptation-range=1.00 / scenecut-aware-qp=0conformance-window-offsets / right=0 / bottom=0 / decoder-max-rate=0 / no-vbv-live-multi-pass
Language                                 : English
Default                                  : Yes
Forced                                   : No
Audio
ID                                       : 2
ID in the original source medium         : 4352 (0x1100)
Format                                   : DTS
Format/Info                              : Digital Theater Systems
Codec ID                                 : A_DTS
Duration                                 : 2 h 9 min
Bit rate mode                            : Constant
Bit rate                                 : 1 509 kb/s
Channel(s)                               : 6 channels
Channel layout                           : C L R Ls Rs LFE
Sampling rate                            : 48.0 kHz
Frame rate                               : 93.750 FPS (512 SPF)
Bit depth                                : 16 bits
Compression mode                         : Lossy
Stream size                              : 1.36 GiB (19%)
Language                                 : Chinese
Default                                  : Yes
Forced                                   : No
Original source medium                   : Blu-ray
Text #1
ID                                       : 3
ID in the original source medium         : 4610 (0x1202)
Format                                   : PGS
Muxing mode                              : zlib
Codec ID                                 : S_HDMV/PGS
Codec ID/Info                            : Picture based subtitle format used on BDs/HD-DVDs
Duration                                 : 2 h 3 min
Bit rate                                 : 25.8 kb/s
Frame rate                               : 0.497 FPS
Count of elements                        : 3684
Stream size                              : 22.8 MiB (0%)
Title                                    : chs
Language                                 : Chinese
Default                                  : Yes
Forced                                   : No
Original source medium                   : Blu-ray
Text #2
ID                                       : 4
ID in the original source medium         : 4611 (0x1203)
Format                                   : PGS
Muxing mode                              : zlib
Codec ID                                 : S_HDMV/PGS
Codec ID/Info                            : Picture based subtitle format used on BDs/HD-DVDs
Duration                                 : 2 h 3 min
Bit rate                                 : 26.1 kb/s
Frame rate                               : 0.497 FPS
Count of elements                        : 3684
Stream size                              : 23.1 MiB (0%)
Title                                    : cht
Language                                 : Chinese
Default                                  : No
Forced                                   : No
Original source medium                   : Blu-ray
Text #3
ID                                       : 5
ID in the original source medium         : 4608 (0x1200)
Format                                   : PGS
Muxing mode                              : zlib
Codec ID                                 : S_HDMV/PGS
Codec ID/Info                            : Picture based subtitle format used on BDs/HD-DVDs
Duration                                 : 2 h 2 min
Bit rate                                 : 32.7 kb/s
Frame rate                               : 0.522 FPS
Count of elements                        : 3822
Stream size                              : 28.6 MiB (0%)
Title                                    : 原盘繁体
Language                                 : Chinese
Default                                  : No
Forced                                   : No
Original source medium                   : Blu-ray
Text #4
ID                                       : 6
ID in the original source medium         : 4609 (0x1201)
Format                                   : PGS
Muxing mode                              : zlib
Codec ID                                 : S_HDMV/PGS
Codec ID/Info                            : Picture based subtitle format used on BDs/HD-DVDs
Duration                                 : 2 h 2 min
Bit rate                                 : 35.2 kb/s
Frame rate                               : 0.522 FPS
Count of elements                        : 3822
Stream size                              : 30.8 MiB (0%)
Language                                 : English
Default                                  : No
Forced                                   : No
Original source medium                   : Blu-ray
Menu
00:00:00.000                             : en:Chapter 01
00:10:46.208                             : en:Chapter 02
00:20:34.083                             : en:Chapter 03
00:31:37.583                             : en:Chapter 04
00:43:45.750                             : en:Chapter 05
00:53:40.708                             : en:Chapter 06
01:05:34.833                             : en:Chapter 07
01:15:32.000                             : en:Chapter 08
01:25:31.333                             : en:Chapter 09
01:34:13.166                             : en:Chapter 10
01:40:39.875                             : en:Chapter 11
01:50:12.500                             : en:Chapter 12
部分资源为软字幕,移动端推荐播放器:MxPlayer,nPlayer,infuse ,其他播放器请自行尝试。
部分资源为软字幕,电脑端推荐播放器:PotPlayer,完美解码,KMPLAYER,其他播放器请自行尝试。






~~~~~~~~~~~~~~~~~~~~~~~~~~~~~~~~~~~~~~~~~
[2022][台湾][喜剧][BD-1080P]关于我和鬼变成家人的那件事[国语音轨/简繁英字幕].Marry.My.Dead.Body.2022.1080p.BluRay.x265.10bit.DTS-SO

【文件列表】:


Marry.My.Dead.Body.2022.1080p.BluRay.x265.10bit.DTS-SONYHD.



【下载地址列表】:


游客
文件下载链接就在这里,在您回复评论成功后才能显示。
请勿回复无意义的灌水内容。


下拉页面到最底部回复或者【点击此处快捷回复】,回复后返回此处即可查看下载链接。
如您没注册本站会员,可以点击注册本站,注册后即可回复下载。



软字幕无法在截图上展现,HDR版本/杜比视界版本截图会出现颜色异常,请使用支持的设备播放!






[img][/img]






[img][/img]

(HDR版本/杜比视界版本,截图会出现颜色异常,请使用支持的设备播放)

小贴士:【影视自媒体解说文案请移步:夏至文案解说网 www.xiazhi.vip

上一篇:[2022][台湾][喜剧][BD-1080P]关于我和鬼变成家人的那件事[国语音轨/简繁英字幕].Marry.My.Dead.Body.2022.1080p.BluRay.x264.DTS- 1
下一篇:[2023][日本][喜剧][WEB-1080P]蜡笔小新:新次元!超能力大决战[国日多音轨/中文字幕].2023.MULTi.1080p.WEB-DL.AAC2.0.H.264- 2.64GB
回复

使用道具 举报

您需要登录后才可以回帖 登录 | 立即注册

本版积分规则

Archiver|手机版|小众纪录片影视聚合

GMT+8, 2024-7-24 23:16 , Processed in 0.088000 second(s), 13 queries , Gzip On, Redis On.

Powered by 小众纪录片影视聚合 @2010-2023

Copyright © 2010-2024, https://www.xzjlp.com/.


免责说明:本站所有内容链接、图文介绍等均来自于互联网网友分享,本站仅支持web页面展示和文字介绍,绝不提供在线观看和存储服务,也不参与录制、上传、压片。若本站收录内容无意侵犯贵司版权,请发邮件到【a885185#163.com】联系本站,我们将在第一时间删除侵权内容。谢谢!

快速回复 返回顶部 返回列表