小众纪录片影视聚合

 找回密码
 立即注册
查看: 11|回复: 0

[蓝光电影] [更 早][其它][科幻][BD-1080P]X档案:征服未来[中文字幕].The.X.Files.Fight.the.Future.1998.Extended.Cut.Bluray.1080p.AAC2.

[复制链接]

116万

主题

116万

帖子

116万

积分

超级版主

Rank: 8Rank: 8

积分
1167997
发表于 2024-7-9 21:16:34 | 显示全部楼层 |阅读模式


[更 早][其它][科幻][BD-1080P]X档案:征服未来[中文字幕].The.X.Files.Fight.the.Future.1998.Extended.Cut.Bluray.1080p.AAC2.

完整标题:X档案:征服未来[中文字幕].The.X.Files.Fight.the.Future.1998.Extended.Cut.Bluray.1080p.AAC2.0.x264-DreamHD 3.60GB
◎标  题 X档案:征服未来
◎译  名 X档案 / The X Files: Fight the Future / Blackwood
◎片  名 The X Files
◎年  代 1998
◎产  地 加拿大 / 美国
◎类  别 科幻 / 悬疑 / 惊悚 / 恐怖 / 犯罪
◎语  言 英语
◎上映日期 1998-06-19
◎IMDb评分 7/10 (107237人评价)
◎IMDb链接 https://www.imdb.com/title/tt0120902/
◎豆瓣评分 6.9/10 (8169人评价)
◎豆瓣链接 https://movie.douban.com/subject/1293330/
◎片  长 121 分钟
◎导  演 罗伯·鲍曼 Rob Bowman
◎编  剧 克里斯·卡特 Chris Carter
       弗兰克·斯伯特尼 Frank Spotnitz
◎演  员 大卫·杜楚尼 David Duchovny
       吉莲·安德森 Gillian Anderson
       约翰·内威尔 John Neville
       威廉·B·戴维斯 William B. Davis
       米彻·佩勒吉 Mitch Pileggi
       托宾·贝尔 Tobin Bell
       兰迪·霍尔 Randy Hall
       户田惠子 Keiko Toda
       卢卡斯·布莱克 Lucas Black
       特瑞·欧奎恩 Terry O'Quinn
       拉里·里彭克勒杰 Larry Rippenkroeger
       David Paris David Paris
       汤姆·伍德鲁夫 Tom Woodruff Jr.
◎简  介
    五年的追逐化为泡影,随着X档案的关闭,福克斯·穆德(大卫·杜楚尼 David Duchovny 饰)和丹娜·斯科莉(吉莲·安德森 Gillian Anderson 饰)被迫调任处理一些平常的案件。某天,美国得州达拉斯市发生一起爆炸案。虽然穆德和斯科莉极力疏散写字楼内的人群,但爆炸还是夺取了4名无辜者的性命,他们也因此受到上级的指摘。然而事后不久,穆德便得知4名牺牲者早在爆炸之前便已死亡,所谓爆炸案不过是某个神秘部门为了掩盖证据而实施的骗局。该部门据说多年来一直从事外星人的研究,并且他们的研究足以导致人类的毁灭。两名搭档决定彻查此事,但是神秘且难以抗拒的力量无时无刻不在阻挠他们追寻真相的脚步……                                    本片为同名美剧的第一部剧场版。
点击图片可查看大图
软字幕无法在截图上展现,HDR版本/杜比视界版本截图会出现颜色异常,请使用支持的设备播放!
##### MediaInfo ######
General
Complete name                            : The.X.Files.Fight.the.Future.1998.Extended.Cut.Bluray.1080p.AAC2.0.x264-DreamHD.mp4
Duration                                 : 2 h 2 min
Overall bit rate                         : 4 199 kb/s
Video
ID                                       : 1
Format                                   : AVC
Format/Info                              : Advanced Video Codec
Format profile                           : [email protected]
Format settings                          : 4 Ref Frames
Format settings, CABAC                   : No
Format settings, Reference frames        : 4 frames
Codec ID                                 : avc1
Codec ID/Info                            : Advanced Video Coding
Duration                                 : 2 h 2 min
Bit rate                                 : 3 997 kb/s
Width                                    : 1 920 pixels
Height                                   : 1 080 pixels
Display aspect ratio                     : 16:9
Frame rate mode                          : Variable
Frame rate                               : 23.976 (24000/1001) FPS
Minimum frame rate                       : 23.974 FPS
Maximum frame rate                       : 23.981 FPS
Color space                              : YUV
Chroma subsampling                       : 4:2:0
Bit depth                                : 8 bits
Scan type                                : Progressive
Bits/(Pixel*Frame)                       : 0.080
Stream size                              : 3.43 GiB (95%)
Writing library                          : x264 core 164 r3107 a8b68ebf
Encoding settings                        : cabac=0 / ref=4 / deblock=0:0:0 / analyse=0x1:0x111 / me=hex / subme=8 / psy=1 / psy_rd=1.00:0.00 / mixed_ref=1 / me_range=16 / chroma_me=1 / trellis=2 / 8x8dct=0 / cqm=0 / deadzone=21,11 / fast_pskip=1 / chroma_qp_offset=-2 / threads=34 / lookahead_threads=5 / sliced_threads=0 / nr=0 / decimate=1 / interlaced=0 / bluray_compat=0 / constrained_intra=0 / bframes=3 / b_pyramid=2 / b_adapt=1 / b_bias=0 / direct=3 / weightb=0 / open_gop=0 / weightp=0 / keyint=240 / keyint_min=24 / scenecut=40 / intra_refresh=0 / rc_lookahead=50 / rc=2pass / mbtree=1 / bitrate=4000 / ratetol=1.0 / qcomp=0.60 / qpmin=0 / qpmax=69 / qpstep=4 / cplxblur=20.0 / qblur=0.5 / vbv_maxrate=50000 / vbv_bufsize=62500 / nal_hrd=none / filler=0 / ip_ratio=1.40 / aq=1:1.00
Encoded date                             : UTC 2024-03-01 07:43:50
Tagged date                              : UTC 2024-03-01 07:43:50
Color range                              : Limited
Color primaries                          : BT.709
Transfer characteristics                 : BT.709
Matrix coefficients                      : BT.709
Menus                                    : 3
mdhd_Duration                            : 7361271
Codec configuration box                  : avcC
Audio
ID                                       : 2
Format                                   : AAC LC
Format/Info                              : Advanced Audio Codec Low Complexity
Codec ID                                 : mp4a-40-2
Duration                                 : 2 h 2 min
Source duration                          : 2 h 2 min
Bit rate mode                            : Constant
Bit rate                                 : 192 kb/s
Channel(s)                               : 2 channels
Channel layout                           : L R
Sampling rate                            : 48.0 kHz
Frame rate                               : 46.875 FPS (1024 SPF)
Compression mode                         : Lossy
Stream size                              : 171 MiB (5%)
Source stream size                       : 171 MiB (5%)
Title                                    : DTS-HD Master Audio 5.1 / 48 kHz /  4188 kbps / 24-bit (DTS Core: 5.1 / 48 kHz /  1509 kbps / 24-bit)
Language                                 : English
Default                                  : Yes
Alternate group                          : 1
Encoded date                             : UTC 2024-03-01 07:43:50
Tagged date                              : UTC 2024-03-01 07:43:50
Menus                                    : 3
Menu
ID                                       : 3
Format                                   : Timed Text
Codec ID                                 : text
Duration                                 : 2 h 2 min
Language                                 : English
Encoded date                             : UTC 2024-03-01 07:43:50
Tagged date                              : UTC 2024-03-01 07:43:50
Menu For                                 : 1,2
00:00:00.000                             : Ice Cave
00:05:47.556                             : The Impossible Scenario
00:10:55.905                             : Explosion in Dallas
00:21:41.425                             : Assigning Blame
00:26:10.152                             : Conspiracy Theory
00:32:36.538                             : This Man is Still Alive
00:35:51.858                             : A Plague to End All Plagues
00:45:10.374                             : So Much for Little Green Men
00:50:50.089                             : The Syndicate Meets
00:54:55.417                             : Unmarked Tanker Trucks
01:01:02.576                             : The Bee Dome
01:07:28.878                             : Resignation
01:16:58.614                             : The Lone Gunman
01:18:44.094                             : Trust No One
01:27:21.987                             : Antarctica
01:37:13.786                             : A Containment System
01:44:15.124                             : Scully, You've Got to See This
01:48:00.516                             : The Truth Is Still Out There
部分资源为软字幕,移动端推荐播放器:MxPlayer,nPlayer,infuse ,其他播放器请自行尝试。
部分资源为软字幕,电脑端推荐播放器:PotPlayer,完美解码,KMPLAYER,其他播放器请自行尝试。






~~~~~~~~~~~~~~~~~~~~~~~~~~~~~~~~~~~~~~~~~
[更 早][其它][科幻][BD-1080P]X档案:征服未来[中文字幕].The.X.Files.Fight.the.Future.1998.Extended.Cut.Bluray.1080p.AAC2.

【文件列表】:


The.X.Files.Fight.the.Future.1998.Extended.Cut.Bluray.1080p.AAC2.0.x264-Dre...

The.X.Files.Fight.the.Future.1998.Extended.Cut.Bluray.1080p.AAC2.0.x264-Dre...



【下载地址列表】:


游客
文件下载链接就在这里,在您回复评论成功后才能显示。
请勿回复无意义的灌水内容。


下拉页面到最底部回复或者【点击此处快捷回复】,回复后返回此处即可查看下载链接。
如您没注册本站会员,可以点击注册本站,注册后即可回复下载。



软字幕无法在截图上展现,HDR版本/杜比视界版本截图会出现颜色异常,请使用支持的设备播放!






[img][/img]






[img][/img]

(HDR版本/杜比视界版本,截图会出现颜色异常,请使用支持的设备播放)

小贴士:【影视自媒体解说文案请移步:夏至文案解说网 www.xiazhi.vip

上一篇:[更 早][其它][科幻][BD-1080P]X档案:征服未来[中文字幕].1998.Extended.Cut.Bluray.1080p.DTS-HDMA5.1.x265.10bit- 8.1
下一篇:[2008][欧美][剧情][BD-1080P]X档案:我要相信[中文字幕].2008.Directors.Cut.Bluray.1080p.DTS-HDMA5.1.x265.10bit- 6.
回复

使用道具 举报

您需要登录后才可以回帖 登录 | 立即注册

本版积分规则

Archiver|手机版|小众纪录片影视聚合

GMT+8, 2024-7-25 02:24 , Processed in 0.149665 second(s), 13 queries , Gzip On, Redis On.

Powered by 小众纪录片影视聚合 @2010-2023

Copyright © 2010-2024, https://www.xzjlp.com/.


免责说明:本站所有内容链接、图文介绍等均来自于互联网网友分享,本站仅支持web页面展示和文字介绍,绝不提供在线观看和存储服务,也不参与录制、上传、压片。若本站收录内容无意侵犯贵司版权,请发邮件到【a885185#163.com】联系本站,我们将在第一时间删除侵权内容。谢谢!

快速回复 返回顶部 返回列表