小众纪录片影视聚合

 找回密码
 立即注册
查看: 6|回复: 0

[蓝光电影] [2022][其它][剧情][BD-1080P]未来罪行[中文字幕].Crimes.of.the.Future.2022.BluRay.REMUX.1080p.AVC.DTS-HD.MA5.1-

[复制链接]

116万

主题

116万

帖子

116万

积分

超级版主

Rank: 8Rank: 8

积分
1167997
发表于 2024-7-9 21:37:54 | 显示全部楼层 |阅读模式


[2022][其它][剧情][BD-1080P]未来罪行[中文字幕].Crimes.of.the.Future.2022.BluRay.REMUX.1080p.AVC.DTS-HD.MA5.1-

完整标题:未来罪行[中文字幕].Crimes.of.the.Future.2022.BluRay.REMUX.1080p.AVC.DTS-HD.MA5.1-DreamHD 29.30GB
◎标  题 未来罪行
◎译  名 犯罪档案 / 后人类罪行(港) / 未来犯罪(台)
◎片  名 Crimes of the Future
◎年  代 2022
◎产  地 加拿大 / 法国 / 希腊 / 英国
◎类  别 剧情 / 科幻 / 恐怖
◎语  言 英语
◎上映日期 2022-05-23(戛纳电影节) / 2022-05-25(法国)
◎IMDb评分 5.8/10 (39128人评价)
◎IMDb链接 https://www.imdb.com/title/tt14549466/
◎豆瓣评分 6.2/10 (19405人评价)
◎豆瓣链接 https://movie.douban.com/subject/35448536/
◎片  长 107分钟
◎导  演 大卫·柯南伯格 David Cronenberg
◎编  剧 大卫·柯南伯格 David Cronenberg
◎演  员 维果·莫腾森 Viggo Mortensen
       蕾雅·赛杜 Léa Seydoux
       克里斯汀·斯图尔特 Kristen Stewart
       斯科特·斯比德曼 Scott Speedman
       韦尔凯特·邦盖 Welket Bungué
       唐·麦凯勒 Don McKellar
       约戈斯·皮尔帕索珀罗斯 Yorgos Pirpassopoulos
       塔娜亚·比蒂 Tanaya Beatty
       娜迪亚·利茨 Nadia Litz
       莉希·科诺夫斯基 Lihi Kornowski
       丹尼斯·卡佩扎 Denise Capezza
       索佐斯·索蒂里斯 Sozos Sotiris
       埃菲·坎查 Ephie Kantza
       杰森·比特 Jason Bitter
       皮内洛皮·提斯丽卡 Pinelopi Tsilika
       桥格斯·卡拉米霍斯 Giorgos Karamihos
◎简  介
    该片深入探索不远的未来,人类正在学习适应其合成环境,这种进化使人类超越自然状态,开始变形,改变他们的生物构成。有些人欣然接受超人文主义的无限潜力,而另一些人则试图控制它。不管怎样,“加速进化综合症”正在迅速蔓延。                                    索尔·滕泽是一位深受喜爱的行为艺术家,他接受了加速进化综 合症,身体里长出了意想不到的新器官。滕泽和他的搭档卡普利斯一起将摘除这些器官的过程变成了一场奇观——在剧院里实时操作,让其忠实的拥护者们惊叹。但是在政府和奇怪的亚文化共同关注的情况下,滕泽被迫考虑什么将是他最令人震惊的表演。##### MediaInfo ######
General
Unique ID                                : 195260703563036547412300630091126001738 (0x92E5D7F5DE87B9895A7331604F2BD04A)
Complete name                            : Crimes.of.the.Future.2022.BluRay.REMUX.1080p.AVC.DTS-HD.MA5.1-DreamHD.mkv
Duration                                 : 1 h 47 min
Overall bit rate mode                    : Variable
Overall bit rate                         : 39.0 Mb/s
Video
ID                                       : 1
Format                                   : AVC
Format/Info                              : Advanced Video Codec
Format profile                           : [email protected]
Format settings                          : CABAC / 4 Ref Frames
Format settings, CABAC                   : Yes
Format settings, Reference frames        : 4 frames
Codec ID                                 : V_MPEG4/ISO/AVC
Duration                                 : 1 h 47 min
Bit rate mode                            : Variable
Bit rate                                 : 35.4 Mb/s
Maximum bit rate                         : 39.0 Mb/s
Width                                    : 1 920 pixels
Height                                   : 1 080 pixels
Display aspect ratio                     : 16:9
Frame rate mode                          : Constant
Frame rate                               : 23.976 (24000/1001) FPS
Color space                              : YUV
Chroma subsampling                       : 4:2:0
Bit depth                                : 8 bits
Scan type                                : Progressive
Bits/(Pixel*Frame)                       : 0.713
Stream size                              : 26.6 GiB (91%)
Default                                  : Yes
Forced                                   : No
Audio
ID                                       : 2
ID in the original source medium         : 4352 (0x1100)
Format                                   : DTS XLL
Format/Info                              : Digital Theater Systems
Commercial name                          : DTS-HD Master Audio
Codec ID                                 : A_DTS
Duration                                 : 1 h 47 min
Bit rate mode                            : Variable
Bit rate                                 : 3 429 kb/s
Channel(s)                               : 6 channels
Channel layout                           : C L R Ls Rs LFE
Sampling rate                            : 48.0 kHz
Frame rate                               : 93.750 FPS (512 SPF)
Bit depth                                : 24 bits
Compression mode                         : Lossless
Stream size                              : 2.58 GiB (9%)
Language                                 : English
Default                                  : Yes
Forced                                   : No
Original source medium                   : Blu-ray
Text #1
ID                                       : 3
ID in the original source medium         : 4608 (0x1200)
Format                                   : PGS
Muxing mode                              : zlib
Codec ID                                 : S_HDMV/PGS
Codec ID/Info                            : Picture based subtitle format used on BDs/HD-DVDs
Duration                                 : 1 h 41 min
Bit rate                                 : 25.9 kb/s
Frame rate                               : 0.601 FPS
Count of elements                        : 3648
Stream size                              : 18.8 MiB (0%)
Language                                 : English
Default                                  : Yes
Forced                                   : No
Original source medium                   : Blu-ray
Text #2
ID                                       : 4
ID in the original source medium         : 4609 (0x1201)
Format                                   : PGS
Muxing mode                              : zlib
Codec ID                                 : S_HDMV/PGS
Codec ID/Info                            : Picture based subtitle format used on BDs/HD-DVDs
Duration                                 : 1 h 39 min
Bit rate                                 : 34.1 kb/s
Frame rate                               : 0.453 FPS
Count of elements                        : 2714
Stream size                              : 24.4 MiB (0%)
Language                                 : Chinese
Default                                  : Yes
Forced                                   : No
Original source medium                   : Blu-ray
Text #3
ID                                       : 5
ID in the original source medium         : 4610 (0x1202)
Format                                   : PGS
Muxing mode                              : zlib
Codec ID                                 : S_HDMV/PGS
Codec ID/Info                            : Picture based subtitle format used on BDs/HD-DVDs
Duration                                 : 1 h 39 min
Bit rate                                 : 33.6 kb/s
Frame rate                               : 0.453 FPS
Count of elements                        : 2714
Stream size                              : 24.0 MiB (0%)
Language                                 : Chinese
Default                                  : Yes
Forced                                   : No
Original source medium                   : Blu-ray
Text #4
ID                                       : 6
ID in the original source medium         : 4611 (0x1203)
Format                                   : PGS
Muxing mode                              : zlib
Codec ID                                 : S_HDMV/PGS
Codec ID/Info                            : Picture based subtitle format used on BDs/HD-DVDs
Duration                                 : 1 h 39 min
Bit rate                                 : 63.4 kb/s
Frame rate                               : 0.453 FPS
Count of elements                        : 2714
Stream size                              : 45.4 MiB (0%)
Language                                 : Chinese
Default                                  : Yes
Forced                                   : No
Original source medium                   : Blu-ray
Text #5
ID                                       : 7
ID in the original source medium         : 4612 (0x1204)
Format                                   : PGS
Muxing mode                              : zlib
Codec ID                                 : S_HDMV/PGS
Codec ID/Info                            : Picture based subtitle format used on BDs/HD-DVDs
Duration                                 : 1 h 39 min
Bit rate                                 : 63.0 kb/s
Frame rate                               : 0.453 FPS
Count of elements                        : 2714
Stream size                              : 45.0 MiB (0%)
Language                                 : Chinese
Default                                  : Yes
Forced                                   : No
Original source medium                   : Blu-ray
Menu
00:00:00.000                             : en:Chapter 01
00:12:58.778                             : en:Chapter 02
00:27:13.340                             : en:Chapter 03
00:44:55.484                             : en:Chapter 04
00:59:43.079                             : en:Chapter 05
01:15:11.965                             : en:Chapter 06
01:26:14.836                             : en:Chapter 07
01:41:09.438                             : en:Chapter 08
部分资源为软字幕,移动端推荐播放器:MxPlayer,nPlayer,infuse ,其他播放器请自行尝试。
部分资源为软字幕,电脑端推荐播放器:PotPlayer,完美解码,KMPLAYER,其他播放器请自行尝试。
下载端推荐纯BT下载软件:qBittorrent,Bitcomet,uTorrent ,其他下载软件请自行尝试。不支持吸血迅雷。






~~~~~~~~~~~~~~~~~~~~~~~~~~~~~~~~~~~~~~~~~
[2022][其它][剧情][BD-1080P]未来罪行[中文字幕].Crimes.of.the.Future.2022.BluRay.REMUX.1080p.AVC.DTS-HD.MA5.1-

【文件列表】:


Crimes.of.the.Future.2022.BluRay.REMUX.1080p.AVC.DTS-HD.MA5.1-DreamHD.



【下载地址列表】:


游客
文件下载链接就在这里,在您回复评论成功后才能显示。
请勿回复无意义的灌水内容。


下拉页面到最底部回复或者【点击此处快捷回复】,回复后返回此处即可查看下载链接。
如您没注册本站会员,可以点击注册本站,注册后即可回复下载。



软字幕无法在截图上展现,HDR版本/杜比视界版本截图会出现颜色异常,请使用支持的设备播放!






[img][/img]






[img][/img]

(HDR版本/杜比视界版本,截图会出现颜色异常,请使用支持的设备播放)

小贴士:【影视自媒体解说文案请移步:夏至文案解说网 www.xiazhi.vip

上一篇:[2006][欧美][动作][BD-4K]怒火攻心[国语配音/中文字幕/特效字幕].Crank.2006.UHD.BluRay.REMUX.2160p.HEVC.Atmos.TrueHD7.1-Drea
下一篇:[2022][其它][剧情][BD-4K]未来罪行[中文字幕].Crimes.of.the.Future.2022.UHD.BluRay.REMUX.2160p.HEVC.DTS-HD.MA5.1-Dr
回复

使用道具 举报

您需要登录后才可以回帖 登录 | 立即注册

本版积分规则

Archiver|手机版|小众纪录片影视聚合

GMT+8, 2024-7-24 22:27 , Processed in 0.133249 second(s), 11 queries , Gzip On, Redis On.

Powered by 小众纪录片影视聚合 @2010-2023

Copyright © 2010-2024, https://www.xzjlp.com/.


免责说明:本站所有内容链接、图文介绍等均来自于互联网网友分享,本站仅支持web页面展示和文字介绍,绝不提供在线观看和存储服务,也不参与录制、上传、压片。若本站收录内容无意侵犯贵司版权,请发邮件到【a885185#163.com】联系本站,我们将在第一时间删除侵权内容。谢谢!

快速回复 返回顶部 返回列表