小众纪录片影视聚合

 找回密码
 立即注册
查看: 4|回复: 0

[蓝光电影] [2008][欧美][剧情][BD-1080P]X档案:我要相信[中文字幕].The.X.Files.I.Want.to.Believe.2008.Directors.Cut.Bluray.1080p.DTS

[复制链接]

116万

主题

116万

帖子

116万

积分

超级版主

Rank: 8Rank: 8

积分
1167997
发表于 2024-7-9 21:17:14 | 显示全部楼层 |阅读模式


[2008][欧美][剧情][BD-1080P]X档案:我要相信[中文字幕].The.X.Files.I.Want.to.Believe.2008.Directors.Cut.Bluray.1080p.DTS

完整标题:X档案:我要相信[中文字幕].The.X.Files.I.Want.to.Believe.2008.Directors.Cut.Bluray.1080p.DTS-HDMA5.1.x264-DreamHD 11.17GB
◎标  题 X档案:我要相信
◎译  名 X档案2
◎片  名 The X Files: I Want to Believe
◎年  代 2008
◎产  地 美国 / 加拿大
◎类  别 剧情 / 科幻 / 悬疑 / 惊悚
◎语  言 英语 / 俄语 / 捷克
◎上映日期 2008-07-25
◎IMDb评分 5.9/10 (92480人评价)
◎IMDb链接 https://www.imdb.com/title/tt0443701/
◎豆瓣评分 5.9/10 (7770人评价)
◎豆瓣链接 https://movie.douban.com/subject/2298926/
◎片  长 104 分钟 / USA: 108 分钟(director's cut)
◎导  演 克里斯·卡特 Chris Carter
◎编  剧 弗兰克·斯伯特尼 Frank Spotnitz
       克里斯·卡特 Chris Carter
◎演  员 大卫·杜楚尼 David Duchovny
       吉莲·安德森 Gillian Anderson
       阿曼达·皮特 Amanda Peet
       比利·康诺利 Billy Connolly
       亚当·戈德利 Adam Godley
       考乐姆·吉斯·雷尼 Callum Keith Rennie
       艾勒比 Xzibit
       Luvia Petersen Luvia Petersen
       仙莎·拉德蕾 Xantha Radley
       妮基·艾考克斯 Nicki Aycox
       Spencer Maybee Spencer Maybee
       瓦妮莎·托马西诺 Vanesa Tomasino
       克里斯·卡特 Chris Carter
       Veronika Hadrava Veronika Hadrava
       Donavon Stinson Donavon Stinson
       迈克尔·史蒂文斯 Michael Stevens
       Paul Mitton Paul Mitton
        Christina D'Alimonte
       Dion Johnstone Dion Johnstone
       玛茜·T·豪斯 Marci T. House
       奥·盖尔 Lorena Gale
       Vanessa Morley Vanessa Morley
       阿莱克斯·迪亚坤 Alex Diakun
       巴布斯丘拉 Babs Chula
       米彻·佩勒吉 Mitch Pileggi
       户田惠子 Keiko Toda
◎简  介
    自2002年X档案的六年后,前联邦探员丹娜·斯科莉(吉莲·安德森 Gillian Anderson 饰)调任某教会医院担任医师,福克斯·穆德(大卫·杜楚尼 David Duchovny 饰)则过着隐居的生活,继续着对超自然现象的关注。某天,FBI探员前来请求他们的帮助。原来一段时间内,维吉尼亚州接连有数名女子神秘失踪,其中甚至包括一名联邦探员。由于神父约瑟夫(Billy Connolly 饰)声称看到了犯罪画面,因此FBI希望对超自然案件有着丰富经验的穆德和斯科莉协助调查。然而随着调查的深入,穆德和斯科莉却发现案件的黑暗远远超出他们的想象。这对合作多年的搭档面临着巨大的考验……                                    本片为同名美剧的第二部剧场版。
点击图片可查看大图
软字幕无法在截图上展现,HDR版本/杜比视界版本截图会出现颜色异常,请使用支持的设备播放!
##### MediaInfo ######
General
Unique ID                                : 117421576910237284965131890816770977142 (0x585692B743208731A1DF560975392D76)
Complete name                            : The.X.Files.I.Want.to.Believe.2008.Directors.Cut.Bluray.1080p.DTS-HDMA5.1.x264-DreamHD.mkv
Duration                                 : 1 h 48 min
Overall bit rate mode                    : Variable
Overall bit rate                         : 14.8 Mb/s
Video
ID                                       : 1
Format                                   : AVC
Format/Info                              : Advanced Video Codec
Format profile                           : [email protected]
Format settings                          : CABAC / 5 Ref Frames
Format settings, CABAC                   : Yes
Format settings, Reference frames        : 5 frames
Codec ID                                 : V_MPEG4/ISO/AVC
Duration                                 : 1 h 48 min
Bit rate                                 : 11.0 Mb/s
Width                                    : 1 920 pixels
Height                                   : 800 pixels
Display aspect ratio                     : 2.40:1
Frame rate mode                          : Constant
Frame rate                               : 23.976 (24000/1001) FPS
Color space                              : YUV
Chroma subsampling                       : 4:2:0
Bit depth                                : 8 bits
Scan type                                : Progressive
Bits/(Pixel*Frame)                       : 0.300
Stream size                              : 8.34 GiB (75%)
Writing library                          : x264 core 164 r3094 bfc87b7
Encoding settings                        : cabac=1 / ref=5 / deblock=1:-3:-3 / analyse=0x3:0x133 / me=umh / subme=11 / psy=1 / psy_rd=1.00:0.00 / mixed_ref=1 / me_range=64 / chroma_me=1 / trellis=2 / 8x8dct=1 / cqm=0 / deadzone=21,11 / fast_pskip=0 / chroma_qp_offset=-2 / threads=25 / lookahead_threads=6 / sliced_threads=0 / nr=0 / decimate=0 / interlaced=0 / bluray_compat=0 / constrained_intra=0 / bframes=12 / b_pyramid=2 / b_adapt=2 / b_bias=0 / direct=3 / weightb=1 / open_gop=0 / weightp=2 / keyint=250 / keyint_min=23 / scenecut=40 / intra_refresh=0 / rc=crf / mbtree=0 / crf=16.7 / qcomp=0.70 / qpmin=0 / qpmax=69 / qpstep=4 / ip_ratio=1.30 / pb_ratio=1.20 / aq=3:0.80
Default                                  : Yes
Forced                                   : No
Color range                              : Limited
Color primaries                          : BT.709
Matrix coefficients                      : BT.709
Audio
ID                                       : 2
Format                                   : DTS XLL
Format/Info                              : Digital Theater Systems
Commercial name                          : DTS-HD Master Audio
Codec ID                                 : A_DTS
Duration                                 : 1 h 48 min
Bit rate mode                            : Variable
Bit rate                                 : 3 724 kb/s
Channel(s)                               : 6 channels
Channel layout                           : C L R Ls Rs LFE
Sampling rate                            : 48.0 kHz
Frame rate                               : 93.750 FPS (512 SPF)
Bit depth                                : 24 bits
Compression mode                         : Lossless
Stream size                              : 2.81 GiB (25%)
Title                                    : DTS-HD Master Audio / English / 3724 kbps / 5.1 Channels / 48 kHz / 24-bit (DTS Core: 5.1 Channels / 48 kHz / 1509 kbps / 24-bit)
Language                                 : English
Default                                  : Yes
Forced                                   : No
Text #1
ID                                       : 3
Format                                   : PGS
Muxing mode                              : zlib
Codec ID                                 : S_HDMV/PGS
Codec ID/Info                            : Picture based subtitle format used on BDs/HD-DVDs
Duration                                 : 1 h 41 min
Bit rate                                 : 19.5 kb/s
Frame rate                               : 0.324 FPS
Count of elements                        : 1977
Stream size                              : 14.2 MiB (0%)
Title                                    : CHT-UHD
Language                                 : Chinese
Default                                  : Yes
Forced                                   : No
Text #2
ID                                       : 4
Format                                   : PGS
Muxing mode                              : zlib
Codec ID                                 : S_HDMV/PGS
Codec ID/Info                            : Picture based subtitle format used on BDs/HD-DVDs
Duration                                 : 1 h 47 min
Bit rate                                 : 31.2 kb/s
Frame rate                               : 0.340 FPS
Count of elements                        : 2182
Stream size                              : 23.9 MiB (0%)
Title                                    : ENG
Language                                 : English
Default                                  : No
Forced                                   : No
Menu
00:00:00.000                             : en:The Search
00:04:28.768                             : en:Primary Physician
00:06:34.602                             : en:Recruiting Mulder
00:11:25.476                             : en:The Assignment
00:14:43.465                             : en:Father Joe
00:20:13.754                             : en:Tears Of Blood
00:27:33.943                             : en:Abduction
00:30:35.833                             : en:Restless Sleep
00:34:27.899                             : en:Dirty Glass
00:40:16.747                             : en:Stem Cell Research
00:46:45.886                             : en:Missing Person
00:49:46.149                             : en:Decisions
00:57:57.348                             : en:No Answers
01:02:44.594                             : en:Suspects
01:07:08.566                             : en:Deadly Chase
01:10:43.947                             : en:Wanting To Believe
01:15:13.842                             : en:In Harm's Way
01:19:22.340                             : en:Not An FBI Matter
01:22:30.695                             : en:Transplant Surgery
01:27:13.561                             : en:Too Late
01:30:11.113                             : en:Psychic Guidance
01:35:30.391                             : en:Don't Give Up
01:41:05.350                             : en:Are You Ready?
01:42:22.177                             : en:End Credits
部分资源为软字幕,移动端推荐播放器:MxPlayer,nPlayer,infuse ,其他播放器请自行尝试。
部分资源为软字幕,电脑端推荐播放器:PotPlayer,完美解码,KMPLAYER,其他播放器请自行尝试。






~~~~~~~~~~~~~~~~~~~~~~~~~~~~~~~~~~~~~~~~~
[2008][欧美][剧情][BD-1080P]X档案:我要相信[中文字幕].The.X.Files.I.Want.to.Believe.2008.Directors.Cut.Bluray.1080p.DTS

【文件列表】:


The.X.Files.I.Want.to.Believe.2008.Directors.Cut.Bluray.1080p.DTS-HDMA5.1.x...



【下载地址列表】:


游客
文件下载链接就在这里,在您回复评论成功后才能显示。
请勿回复无意义的灌水内容。


下拉页面到最底部回复或者【点击此处快捷回复】,回复后返回此处即可查看下载链接。
如您没注册本站会员,可以点击注册本站,注册后即可回复下载。



软字幕无法在截图上展现,HDR版本/杜比视界版本截图会出现颜色异常,请使用支持的设备播放!






[img][/img]






[img][/img]

(HDR版本/杜比视界版本,截图会出现颜色异常,请使用支持的设备播放)

小贴士:【影视自媒体解说文案请移步:夏至文案解说网 www.xiazhi.vip

上一篇:[2023][欧美][爱情][WEB-4K]可怜的东西[中文字幕].Poor.Things.2023.2160p.DSNP.WEB-DL.DDP.5.1.Atmos.HDR10.H.265-
下一篇:[2018][欧美][动作][WEB-4K]海王[30帧率版本][中文字幕].Aquaman.2018.2160p.Hami.WEB-DL.DD5.1.H264- 18.38GB
回复

使用道具 举报

您需要登录后才可以回帖 登录 | 立即注册

本版积分规则

Archiver|手机版|小众纪录片影视聚合

GMT+8, 2024-7-24 22:54 , Processed in 0.066745 second(s), 13 queries , Gzip On, Redis On.

Powered by 小众纪录片影视聚合 @2010-2023

Copyright © 2010-2024, https://www.xzjlp.com/.


免责说明:本站所有内容链接、图文介绍等均来自于互联网网友分享,本站仅支持web页面展示和文字介绍,绝不提供在线观看和存储服务,也不参与录制、上传、压片。若本站收录内容无意侵犯贵司版权,请发邮件到【a885185#163.com】联系本站,我们将在第一时间删除侵权内容。谢谢!

快速回复 返回顶部 返回列表