小众纪录片影视聚合

 找回密码
 立即注册
查看: 3|回复: 0

[蓝光电影] [2024][欧美][剧情][WEB-4K]雷霆人归来[无字片源].The.Thundermans.Return.2024.2160p.Paramount/.WEB-DL.DDP.5.1.H.265-Dr

[复制链接]

116万

主题

116万

帖子

116万

积分

超级版主

Rank: 8Rank: 8

积分
1167997
发表于 2024-7-9 21:17:55 | 显示全部楼层 |阅读模式


[2024][欧美][剧情][WEB-4K]雷霆人归来[无字片源].The.Thundermans.Return.2024.2160p.Paramount/.WEB-DL.DDP.5.1.H.265-Dr

完整标题:雷霆人归来[无字片源].The.Thundermans.Return.2024.2160p.Paramount/.WEB-DL.DDP.5.1.H.265-DreamHD 4.48GB
◎标  题 雷霆人归来
◎片  名 The Thundermans Return
◎年  代 2024
◎产  地 美国
◎类  别 剧情 / 喜剧 / 动作 / 科幻 / 惊悚 / 犯罪 / 奇幻
◎语  言 英语
◎上映日期 2024-03-07(美国)
◎IMDb链接 https://www.imdb.com/title/tt26943420/
◎豆瓣链接 https://movie.douban.com/subject/36642913/
◎导  演 特雷弗·克什纳 Trevor Kirschner
◎编  剧 肖恩·威廉·坎宁安 Sean William Cunningham
       马克·德沃金 Marc Dworkin
       杰德·斯宾加恩 Jed Spingarn
◎演  员 琪拉·柯萨林 Kira Kosarin
       杰克·格里福 Jack Griffo
       艾蒂森·里克 Addison Riecke
       蒂亚戈·委拉斯凯兹 Diego Velazquez
        Maya Le Clark
       奥黛丽·惠特比 Audrey Whitby
       坦纳·斯泰恩 Tanner Stine
        Kenny Ridwan
       海伦·洪 Helen Hong
       杰夫·米查姆 Jeff Meacham
       Michael Foster Michael Foster
       哈维·吉兰 Harvey Guillen
       杰克·博尔利 Jake Borelli
       罗萨·布拉西 Rosa Blasi
       达纳·斯耐德 Dana Snyder
       奥布丽·K·米勒 Aubrey K. Miller
       马特·姆林斯 Matt Mullins
       Daniele Gaither Daniele Gaither
        Jason Nash
       克里斯·塔尔曼 Chris Tallman
◎简  介
    The Thundermans Return follows twins Phoebe and Max who are enjoying their superhero lifestyle in a new city, but when one ‘save’ goes awry, the Thundermans are sent back to Hiddenville. While Hank and Barb enjoy their return, Chloe develops a new friend group, and Billy and Nora begin a normal high school life, Max and Phoebe are determined to regain their superhero status. The movie features the return of show favorites, including familiar locations, and new menacing supervillains.
点击图片可查看大图
软字幕无法在截图上展现,HDR版本/杜比视界版本截图会出现颜色异常,请使用支持的设备播放!
##### MediaInfo ######
General
Unique ID                                : 254942059216756548504914353218757887268 (0xBFCC0DF9CD5EEFCA72E9237682AC8524)
Complete name                            : The.Thundermans.Return.2024.2160p.Paramount+.WEB-DL.DDP.5.1.H.265-NukeHD.mkv
Duration                                 : 1 h 10 min
Overall bit rate                         : 9 109 kb/s
Video
ID                                       : 1
Format                                   : HEVC
Format/Info                              : High Efficiency Video Coding
Format profile                           : Main@L5@Main
Codec ID                                 : V_MPEGH/ISO/HEVC
Duration                                 : 1 h 10 min
Bit rate                                 : 8 915 kb/s
Width                                    : 3 840 pixels
Height                                   : 2 160 pixels
Display aspect ratio                     : 16:9
Frame rate mode                          : Constant
Frame rate                               : 23.976 (24000/1001) FPS
Color space                              : YUV
Chroma subsampling                       : 4:2:0
Bit depth                                : 8 bits
Bits/(Pixel*Frame)                       : 0.045
Stream size                              : 4.38 GiB (98%)
Language                                 : English
Default                                  : Yes
Forced                                   : No
Color range                              : Limited
Color primaries                          : BT.709
Transfer characteristics                 : BT.709
Matrix coefficients                      : BT.709
Audio
ID                                       : 2
Format                                   : E-AC-3
Format/Info                              : Enhanced AC-3
Commercial name                          : Dolby Digital Plus
Codec ID                                 : A_EAC3
Duration                                 : 1 h 10 min
Bit rate mode                            : Constant
Bit rate                                 : 192 kb/s
Channel(s)                               : 6 channels
Channel layout                           : L R C LFE Ls Rs
Sampling rate                            : 48.0 kHz
Frame rate                               : 31.250 FPS (1536 SPF)
Compression mode                         : Lossy
Stream size                              : 96.6 MiB (2%)
Language                                 : English
Service kind                             : Complete Main
Default                                  : Yes
Forced                                   : No
Text
ID                                       : 3
Format                                   : UTF-8
Codec ID                                 : S_TEXT/UTF8
Codec ID/Info                            : UTF-8 Plain Text
Duration                                 : 1 h 6 min
Bit rate                                 : 88 b/s
Frame rate                               : 0.375 FPS
Count of elements                        : 1499
Stream size                              : 43.1 KiB (0%)
Title                                    : SDH
Language                                 : English
Default                                  : No
Forced                                   : No
Menu
00:00:00.000                             : en:Chapter 01
01:06:43.000                             : en:Credits
部分资源为软字幕,移动端推荐播放器:MxPlayer,nPlayer,infuse ,其他播放器请自行尝试。
部分资源为软字幕,电脑端推荐播放器:PotPlayer,完美解码,KMPLAYER,其他播放器请自行尝试。






~~~~~~~~~~~~~~~~~~~~~~~~~~~~~~~~~~~~~~~~~
[2024][欧美][剧情][WEB-4K]雷霆人归来[无字片源].The.Thundermans.Return.2024.2160p.Paramount/.WEB-DL.DDP.5.1.H.265-Dr

【文件列表】:


The.Thundermans.Return.2024.2160p.Paramount+.WEB-DL.DDP.5.1.H.265-DreamHD.



【下载地址列表】:


游客
文件下载链接就在这里,在您回复评论成功后才能显示。
请勿回复无意义的灌水内容。


下拉页面到最底部回复或者【点击此处快捷回复】,回复后返回此处即可查看下载链接。
如您没注册本站会员,可以点击注册本站,注册后即可回复下载。



软字幕无法在截图上展现,HDR版本/杜比视界版本截图会出现颜色异常,请使用支持的设备播放!






[img][/img]






[img][/img]

(HDR版本/杜比视界版本,截图会出现颜色异常,请使用支持的设备播放)

小贴士:【影视自媒体解说文案请移步:夏至文案解说网 www.xiazhi.vip

上一篇:[2024][欧美][剧情][WEB-1080P]雷霆人归来[无字片源].The.Thundermans.Return.2024.1080p.Paramount/.WEB-DL.DDP.5.1.H.264-Dr
下一篇:[更 早][其它][剧情][WEB-1080P]随风而逝[中文字幕].The.Wind.Will.Carry.Us.1999.1080p.WEB-DL.H264.AAC- 3.28GB
回复

使用道具 举报

您需要登录后才可以回帖 登录 | 立即注册

本版积分规则

Archiver|手机版|小众纪录片影视聚合

GMT+8, 2024-7-25 03:33 , Processed in 0.096965 second(s), 12 queries , Gzip On, Redis On.

Powered by 小众纪录片影视聚合 @2010-2023

Copyright © 2010-2024, https://www.xzjlp.com/.


免责说明:本站所有内容链接、图文介绍等均来自于互联网网友分享,本站仅支持web页面展示和文字介绍,绝不提供在线观看和存储服务,也不参与录制、上传、压片。若本站收录内容无意侵犯贵司版权,请发邮件到【a885185#163.com】联系本站,我们将在第一时间删除侵权内容。谢谢!

快速回复 返回顶部 返回列表