小众纪录片影视聚合

 找回密码
 立即注册
查看: 4|回复: 0

[蓝光电影] [更 早][其它][剧情][WEB-1080P]随风而逝[中文字幕].The.Wind.Will.Carry.Us.1999.1080p.WEB-DL.H264.AAC- 3.28GB

[复制链接]

116万

主题

116万

帖子

116万

积分

超级版主

Rank: 8Rank: 8

积分
1167997
发表于 2024-7-9 21:17:58 | 显示全部楼层 |阅读模式


[更 早][其它][剧情][WEB-1080P]随风而逝[中文字幕].The.Wind.Will.Carry.Us.1999.1080p.WEB-DL.H264.AAC- 3.28GB

完整标题:随风而逝[中文字幕].The.Wind.Will.Carry.Us.1999.1080p.WEB-DL.H264.AAC-BATWEB 3.28GB
◎标  题 随风而逝
◎译  名 风再起时(港) / 风带着我来(台) / 风儿将带着我们飘 / 风会带着我们走 / Bad ma ra khahad bord / The Wind Will Carry Us
◎片  名 باد ما را خواهد برد
◎年  代 1999
◎产  地 伊朗 / 法国
◎类  别 剧情
◎语  言 波斯语
◎上映日期 1999-09-06(威尼斯电影节)
◎IMDb评分 7.4/10 (11570人评价)
◎IMDb链接 https://www.imdb.com/title/tt0209463/
◎豆瓣评分 8.1/10 (16104人评价)
◎豆瓣链接 https://movie.douban.com/subject/1303444/
◎片  长 118分钟
◎导  演 阿巴斯·基亚罗斯塔米 Abbas Kiarostami
◎编  剧 阿巴斯·基亚罗斯塔米 Abbas Kiarostami
◎演  员 纳格·阿萨迪 Noghre Asadi
       贝赫扎德·杜兰 Mui Ting
       罗沙·卡拉姆埃尔米 Roushan Karam Elmi
       巴赫曼·戈巴迪 Bahman Ghobadi
       Behzad Dorani Behzad Dorani
◎简  介
    伊朗库尔德斯坦省的一个小村子里来了一群工程师。村民们对这群突然来到的外来人议论纷纷,好奇他们来此地的目的。虽然感到陌生,但是村民对客人还是表现出友好的欢迎。其中一个工程师,对村里的一切都饶有兴趣。他每天跟随着村里的小孩到处查看,注意到有个生病的老太太,于是不停地打听老太太的病情。因为需要用无线电话和总部联络,而村里的信号不好,所以工程师每次都要跑到山上的墓地去接听。在山上,他发现有个村民总是在独自挖着坑,觉得好奇的他经常上前与这个村民聊天。突然有一天,如风般顺畅的日子发生了变化。山上村民挖的坑塌陷了,活埋了村民,医生前去奋力抢救村民,顺道发现那个老太太也在病危中。面对生命的逝去,工程师惆怅万分。                                    本片荣获第56届威尼斯电影节评审团特别大奖。
点击图片可查看大图
软字幕无法在截图上展现,HDR版本/杜比视界版本截图会出现颜色异常,请使用支持的设备播放!
##### MediaInfo ######
General
Unique ID                                : 284382324473301891663829192639695559769 (0xD5F20B1E9B17BB69F0362C5853481C59)
Complete name                            : The.Wind.Will.Carry.Us.1999.1080p.WEB-DL.H264.AAC-BATWEB.mkv
Duration                                 : 1 h 58 min
Overall bit rate                         : 3 964 kb/s
Video
ID                                       : 1
Format                                   : AVC
Format/Info                              : Advanced Video Codec
Format profile                           : [email protected]
Format settings                          : CABAC / 1 Ref Frames
Format settings, CABAC                   : Yes
Format settings, Reference frames        : 1 frame
Format settings, GOP                     : M=1, N=60
Codec ID                                 : V_MPEG4/ISO/AVC
Duration                                 : 1 h 58 min
Bit rate mode                            : Constant
Bit rate                                 : 4 000 kb/s
Width                                    : 1 920 pixels
Height                                   : 1 080 pixels
Display aspect ratio                     : 16:9
Frame rate mode                          : Constant
Frame rate                               : 29.970 (30000/1001) FPS
Color space                              : YUV
Chroma subsampling                       : 4:2:0
Bit depth                                : 8 bits
Scan type                                : Progressive
Bits/(Pixel*Frame)                       : 0.064
Stream size                              : 3.17 GiB (97%)
Default                                  : Yes
Forced                                   : No
Audio
ID                                       : 2
Format                                   : AAC LC
Format/Info                              : Advanced Audio Codec Low Complexity
Codec ID                                 : A_AAC-2
Duration                                 : 1 h 58 min
Bit rate                                 : 125 kb/s
Channel(s)                               : 2 channels
Channel layout                           : L R
Sampling rate                            : 48.0 kHz
Frame rate                               : 46.875 FPS (1024 SPF)
Compression mode                         : Lossy
Stream size                              : 106 MiB (3%)
Default                                  : No
Forced                                   : No
Text #1
ID                                       : 3
Format                                   : UTF-8
Codec ID                                 : S_TEXT/UTF8
Codec ID/Info                            : UTF-8 Plain Text
Duration                                 : 1 h 56 min
Bit rate                                 : 39 b/s
Frame rate                               : 0.230 FPS
Count of elements                        : 1608
Stream size                              : 33.6 KiB (0%)
Title                                    : Simplified
Language                                 : Chinese
Default                                  : Yes
Forced                                   : No
Text #2
ID                                       : 4
Format                                   : UTF-8
Codec ID                                 : S_TEXT/UTF8
Codec ID/Info                            : UTF-8 Plain Text
Duration                                 : 1 h 56 min
Bit rate                                 : 39 b/s
Frame rate                               : 0.230 FPS
Count of elements                        : 1608
Stream size                              : 33.6 KiB (0%)
Title                                    : Traditional
Language                                 : Chinese
Default                                  : No
Forced                                   : No
部分资源为软字幕,移动端推荐播放器:MxPlayer,nPlayer,infuse ,其他播放器请自行尝试。
部分资源为软字幕,电脑端推荐播放器:PotPlayer,完美解码,KMPLAYER,其他播放器请自行尝试。






~~~~~~~~~~~~~~~~~~~~~~~~~~~~~~~~~~~~~~~~~
[更 早][其它][剧情][WEB-1080P]随风而逝[中文字幕].The.Wind.Will.Carry.Us.1999.1080p.WEB-DL.H264.AAC- 3.28GB

【文件列表】:


The.Wind.Will.Carry.Us.1999.1080p.WEB-DL.H264.AAC-BATWEB.



【下载地址列表】:


游客
文件下载链接就在这里,在您回复评论成功后才能显示。
请勿回复无意义的灌水内容。


下拉页面到最底部回复或者【点击此处快捷回复】,回复后返回此处即可查看下载链接。
如您没注册本站会员,可以点击注册本站,注册后即可回复下载。



软字幕无法在截图上展现,HDR版本/杜比视界版本截图会出现颜色异常,请使用支持的设备播放!






[img][/img]






[img][/img]

(HDR版本/杜比视界版本,截图会出现颜色异常,请使用支持的设备播放)

小贴士:【影视自媒体解说文案请移步:夏至文案解说网 www.xiazhi.vip

上一篇:[2024][欧美][剧情][WEB-4K]雷霆人归来[无字片源].The.Thundermans.Return.2024.2160p.Paramount/.WEB-DL.DDP.5.1.H.265-Dr
下一篇:[更 早][其它][剧情][WEB-1080P]橄榄树下的情人[中文字幕].Through.the.Olive.Trees.1994.1080p.WEB-DL.H264.AAC- 2.82GB
回复

使用道具 举报

您需要登录后才可以回帖 登录 | 立即注册

本版积分规则

Archiver|手机版|小众纪录片影视聚合

GMT+8, 2024-7-25 02:27 , Processed in 0.095253 second(s), 12 queries , Gzip On, Redis On.

Powered by 小众纪录片影视聚合 @2010-2023

Copyright © 2010-2024, https://www.xzjlp.com/.


免责说明:本站所有内容链接、图文介绍等均来自于互联网网友分享,本站仅支持web页面展示和文字介绍,绝不提供在线观看和存储服务,也不参与录制、上传、压片。若本站收录内容无意侵犯贵司版权,请发邮件到【a885185#163.com】联系本站,我们将在第一时间删除侵权内容。谢谢!

快速回复 返回顶部 返回列表