小众纪录片影视聚合

 找回密码
 立即注册
查看: 7|回复: 0

[蓝光电影] [2022][其它][剧情][WEB-1080P]兜风[中文字幕].Joyride.2022.1080p.WEB-DL.H264.DDP5.1- 0.85GB

[复制链接]

113万

主题

113万

帖子

113万

积分

超级版主

Rank: 8Rank: 8

积分
1134574
发表于 2024-7-9 21:18:04 | 显示全部楼层 |阅读模式


[2022][其它][剧情][WEB-1080P]兜风[中文字幕].Joyride.2022.1080p.WEB-DL.H264.DDP5.1- 0.85GB

完整标题:兜风[中文字幕].Joyride.2022.1080p.WEB-DL.H264.DDP5.1-DreamHD 0.85GB
◎标  题 兜风
◎译  名 疯狂闺蜜
◎片  名 Joyride
◎年  代 2022
◎产  地 爱尔兰
◎类  别 剧情
◎语  言 英语
◎上映日期 2022-07-29(爱尔兰)
◎IMDb评分 6.1/10 (1476人评价)
◎IMDb链接 https://www.imdb.com/title/tt13515090/
◎豆瓣评分 6.0/10 (234人评价)
◎豆瓣链接 https://movie.douban.com/subject/35248536/
◎片  长 94分钟
◎导  演 埃默·雷诺兹 Emer Reynolds
◎编  剧 艾尔韦·凯根 Ailbhe Keogan
◎演  员 奥利维娅·科尔曼 Olivia Colman
       查理·瑞德 Charlie Reid
       洛克伦·奥米拉因 Lochlainn O'Mearain
       伊莱恩·肯尼迪 Elaine Kennedy
       欧文·弗热瑞 Olwen Fouéré
       艾斯琳·麦古金 Aislín McGuckin
       汤米·蒂尔南 Tommy Tiernan
       鲁斯·麦克卡比 Ruth McCabe
       艾丝琳·奥沙利文 Aisling O'Sullivan
       特雷弗·坎斯瓦兰 Trevor Kaneswaran
       莱奥·哈纳 Leo Hanna
◎简  介
    讲述生活一团糟的乔伊踏上了一段冒险之旅,准备把刚出生孩子交给闺蜜照顾,不料一个厚脸皮的流浪儿尾随而来,两块未经雕琢的璞玉组成了很嗨皮的一对搭档,开启逃离之路。
点击图片可查看大图
软字幕无法在截图上展现,HDR版本/杜比视界版本截图会出现颜色异常,请使用支持的设备播放!
##### MediaInfo ######
General
Unique ID                                : 30452992430960539844156965717875629341 (0x16E90872CFFAA799F7BC0E0E28741D1D)
Complete name                            : Joyride.2022.1080p.WEB-DL.H264.DDP5.1-NukeHD.mkv
Duration                                 : 1 h 22 min
Overall bit rate                         : 1 477 kb/s
Video
ID                                       : 1
Format                                   : AVC
Format/Info                              : Advanced Video Codec
Format profile                           : High@L5
Format settings                          : CABAC / 5 Ref Frames
Format settings, CABAC                   : Yes
Format settings, Reference frames        : 5 frames
Codec ID                                 : V_MPEG4/ISO/AVC
Duration                                 : 1 h 22 min
Bit rate                                 : 772 kb/s
Width                                    : 1 920 pixels
Height                                   : 808 pixels
Display aspect ratio                     : 2.40:1
Frame rate mode                          : Constant
Frame rate                               : 25.000 FPS
Color space                              : YUV
Chroma subsampling                       : 4:2:0
Bit depth                                : 8 bits
Scan type                                : Progressive
Bits/(Pixel*Frame)                       : 0.020
Stream size                              : 457 MiB (52%)
Default                                  : Yes
Forced                                   : No
Color range                              : Limited
Color primaries                          : BT.709
Transfer characteristics                 : BT.709
Matrix coefficients                      : BT.709
Audio #1
ID                                       : 2
Format                                   : E-AC-3
Format/Info                              : Enhanced AC-3
Commercial name                          : Dolby Digital Plus
Codec ID                                 : A_EAC3
Duration                                 : 1 h 22 min
Bit rate mode                            : Constant
Bit rate                                 : 448 kb/s
Channel(s)                               : 6 channels
Channel layout                           : L R C LFE Ls Rs
Sampling rate                            : 48.0 kHz
Frame rate                               : 31.250 FPS (1536 SPF)
Compression mode                         : Lossy
Stream size                              : 265 MiB (30%)
Title                                    : [DDP5.1]
Language                                 : English
Service kind                             : Complete Main
Default                                  : Yes
Forced                                   : No
Audio #2
ID                                       : 3
Format                                   : AAC LC
Format/Info                              : Advanced Audio Codec Low Complexity
Codec ID                                 : A_AAC-2
Duration                                 : 1 h 22 min
Bit rate                                 : 255 kb/s
Channel(s)                               : 2 channels
Channel layout                           : L R
Sampling rate                            : 44.1 kHz
Frame rate                               : 43.066 FPS (1024 SPF)
Compression mode                         : Lossy
Stream size                              : 151 MiB (17%)
Title                                    : [AAC2.0]
Language                                 : English
Default                                  : No
Forced                                   : No
部分资源为软字幕,移动端推荐播放器:MxPlayer,nPlayer,infuse ,其他播放器请自行尝试。
部分资源为软字幕,电脑端推荐播放器:PotPlayer,完美解码,KMPLAYER,其他播放器请自行尝试。






~~~~~~~~~~~~~~~~~~~~~~~~~~~~~~~~~~~~~~~~~
[2022][其它][剧情][WEB-1080P]兜风[中文字幕].Joyride.2022.1080p.WEB-DL.H264.DDP5.1- 0.85GB

【文件列表】:


Joyride.2022.1080p.WEB-DL.H264.DDP5.1-DreamHD.



【下载地址列表】:


游客
文件下载链接就在这里,在您回复评论成功后才能显示。
请勿回复无意义的灌水内容。


下拉页面到最底部回复或者【点击此处快捷回复】,回复后返回此处即可查看下载链接。
如您没注册本站会员,可以点击注册本站,注册后即可回复下载。



软字幕无法在截图上展现,HDR版本/杜比视界版本截图会出现颜色异常,请使用支持的设备播放!






[img][/img]






[img][/img]

(HDR版本/杜比视界版本,截图会出现颜色异常,请使用支持的设备播放)

小贴士:【影视自媒体解说文案请移步:夏至文案解说网 www.xiazhi.vip

上一篇:[更 早][其它][剧情][WEB-1080P]橄榄树下的情人[中文字幕].Through.the.Olive.Trees.1994.1080p.WEB-DL.H264.AAC- 2.82GB
下一篇:[2022][其它][剧情][WEB-4K]兜风[高码版][中文字幕].Joyride.2022.2160p.HQ.WEB-DL.H265.DDP5.1- 11.82GB
回复

使用道具 举报

您需要登录后才可以回帖 登录 | 立即注册

本版积分规则

Archiver|手机版|小众纪录片影视聚合

GMT+8, 2024-7-22 06:18 , Processed in 0.070340 second(s), 13 queries , Gzip On, Redis On.

Powered by 小众纪录片影视聚合 @2010-2023

Copyright © 2010-2024, https://www.xzjlp.com/.


免责说明:本站所有内容链接、图文介绍等均来自于互联网网友分享,本站仅支持web页面展示和文字介绍,绝不提供在线观看和存储服务,也不参与录制、上传、压片。若本站收录内容无意侵犯贵司版权,请发邮件到【a885185#163.com】联系本站,我们将在第一时间删除侵权内容。谢谢!

快速回复 返回顶部 返回列表