小众纪录片影视聚合

 找回密码
 立即注册
查看: 5|回复: 0

[蓝光电影] [更 早][其它][剧情][WEB-1080P]橄榄树下的情人[中文字幕].Through.the.Olive.Trees.1994.1080p.WEB-DL.H264.AAC- 2.82GB

[复制链接]

116万

主题

116万

帖子

116万

积分

超级版主

Rank: 8Rank: 8

积分
1167997
发表于 2024-7-9 21:18:01 | 显示全部楼层 |阅读模式


[更 早][其它][剧情][WEB-1080P]橄榄树下的情人[中文字幕].Through.the.Olive.Trees.1994.1080p.WEB-DL.H264.AAC- 2.82GB

完整标题:橄榄树下的情人[中文字幕].Through.the.Olive.Trees.1994.1080p.WEB-DL.H264.AAC-BATWEB 2.82GB
◎标  题 橄榄树下的情人
◎译  名 穿越橄榄树林 / Zire darakhatan zeyton / Through The Olive Trees
◎片  名 زير درختان زيتون
◎年  代 1994
◎产  地 伊朗 / 法国
◎类  别 剧情
◎语  言 波斯语
◎上映日期 1994-02-01(伊朗曙光旬电影节)
◎IMDb评分 7.7/10 (9656人评价)
◎IMDb链接 https://www.imdb.com/title/tt0111845/
◎豆瓣评分 8.4/10 (19008人评价)
◎豆瓣链接 https://movie.douban.com/subject/1303465/
◎片  长 103 分钟
◎导  演 阿巴斯·基亚罗斯塔米 Abbas Kiarostami
◎编  剧 阿巴斯·基亚罗斯塔米 Abbas Kiarostami
◎演  员 默罕默德·阿里·科沙瓦兹 Mohamad Ali Keshavarz
       法德哈·基德曼 Farhad Kheradmand
       Zarifeh Shiva Zarifeh Shiva
       侯赛因·拉扎伊 Hossein Rezai
       Tahereh Ladanian Tahereh Ladanian
       科达·巴和·迪范 Kheda Barech Defai
       艾哈迈德·艾哈迈德·波 Ahmed Ahmed Poor
       巴比·艾哈迈德·波 Babek Ahmed Poor
       贾法·帕纳西 Jafar Panahi
◎简  介
    地震过后,一支摄制组来到某个山村准备拍摄影片,导演(默罕默德·阿里·科沙瓦兹 Mohamad Ali Keshavarz 饰)决定一如既往启用非职业演员。巧合的是,饰演男主角的侯赛因(Hossein Rezai 饰)暗恋女主角塔赫莉(Tahereh Ladanian 饰 )良久。侯赛因出身贫寒,孑然一身;塔赫莉则家境优渥,受过良好的教育。由于彼此间的巨大差别,侯赛因的爱情始终未能开花结果。不过,地震摧毁了塔赫莉的一切,她的家境和侯赛因相差无几。借着拍戏的机会,侯赛因向爱人展开大胆的追求……                                    本片荣获1994年芝加哥国际电影节最佳影片奖、1995年新加坡国际电影节最佳导演奖、1994年圣保罗国际电影节影评人奖。
点击图片可查看大图
软字幕无法在截图上展现,HDR版本/杜比视界版本截图会出现颜色异常,请使用支持的设备播放!
##### MediaInfo ######
General
Unique ID                                : 51918395182448203693656762735198010665 (0x270F1E838A3BAA897D52B41977C4FD29)
Complete name                            : Through.the.Olive.Trees.1994.1080p.WEB-DL.H264.AAC-BATWEB.mkv
Duration                                 : 1 h 43 min
Overall bit rate                         : 3 910 kb/s
Video
ID                                       : 1
Format                                   : AVC
Format/Info                              : Advanced Video Codec
Format profile                           : [email protected]
Format settings                          : CABAC / 1 Ref Frames
Format settings, CABAC                   : Yes
Format settings, Reference frames        : 1 frame
Format settings, GOP                     : M=1, N=60
Codec ID                                 : V_MPEG4/ISO/AVC
Duration                                 : 1 h 43 min
Bit rate mode                            : Constant
Bit rate                                 : 3 782 kb/s
Nominal bit rate                         : 4 000 kb/s
Width                                    : 1 920 pixels
Height                                   : 1 080 pixels
Display aspect ratio                     : 16:9
Frame rate mode                          : Constant
Frame rate                               : 29.970 (30000/1001) FPS
Color space                              : YUV
Chroma subsampling                       : 4:2:0
Bit depth                                : 8 bits
Scan type                                : Progressive
Bits/(Pixel*Frame)                       : 0.061
Stream size                              : 2.73 GiB (97%)
Default                                  : Yes
Forced                                   : No
Audio
ID                                       : 2
Format                                   : AAC LC
Format/Info                              : Advanced Audio Codec Low Complexity
Codec ID                                 : A_AAC-2
Duration                                 : 1 h 43 min
Bit rate                                 : 125 kb/s
Channel(s)                               : 2 channels
Channel layout                           : L R
Sampling rate                            : 48.0 kHz
Frame rate                               : 46.875 FPS (1024 SPF)
Compression mode                         : Lossy
Stream size                              : 92.8 MiB (3%)
Default                                  : No
Forced                                   : No
Text #1
ID                                       : 3
Format                                   : UTF-8
Codec ID                                 : S_TEXT/UTF8
Codec ID/Info                            : UTF-8 Plain Text
Duration                                 : 1 h 41 min
Bit rate                                 : 56 b/s
Frame rate                               : 0.282 FPS
Count of elements                        : 1721
Stream size                              : 42.0 KiB (0%)
Title                                    : Simplified
Language                                 : Chinese
Default                                  : Yes
Forced                                   : No
Text #2
ID                                       : 4
Format                                   : UTF-8
Codec ID                                 : S_TEXT/UTF8
Codec ID/Info                            : UTF-8 Plain Text
Duration                                 : 1 h 41 min
Bit rate                                 : 56 b/s
Frame rate                               : 0.282 FPS
Count of elements                        : 1721
Stream size                              : 42.0 KiB (0%)
Title                                    : Traditional
Language                                 : Chinese
Default                                  : No
Forced                                   : No
部分资源为软字幕,移动端推荐播放器:MxPlayer,nPlayer,infuse ,其他播放器请自行尝试。
部分资源为软字幕,电脑端推荐播放器:PotPlayer,完美解码,KMPLAYER,其他播放器请自行尝试。






~~~~~~~~~~~~~~~~~~~~~~~~~~~~~~~~~~~~~~~~~
[更 早][其它][剧情][WEB-1080P]橄榄树下的情人[中文字幕].Through.the.Olive.Trees.1994.1080p.WEB-DL.H264.AAC- 2.82GB

【文件列表】:


Through.the.Olive.Trees.1994.1080p.WEB-DL.H264.AAC-BATWEB.



【下载地址列表】:


游客
文件下载链接就在这里,在您回复评论成功后才能显示。
请勿回复无意义的灌水内容。


下拉页面到最底部回复或者【点击此处快捷回复】,回复后返回此处即可查看下载链接。
如您没注册本站会员,可以点击注册本站,注册后即可回复下载。



软字幕无法在截图上展现,HDR版本/杜比视界版本截图会出现颜色异常,请使用支持的设备播放!






[img][/img]






[img][/img]

(HDR版本/杜比视界版本,截图会出现颜色异常,请使用支持的设备播放)

小贴士:【影视自媒体解说文案请移步:夏至文案解说网 www.xiazhi.vip

上一篇:[更 早][其它][剧情][WEB-1080P]随风而逝[中文字幕].The.Wind.Will.Carry.Us.1999.1080p.WEB-DL.H264.AAC- 3.28GB
下一篇:[2022][其它][剧情][WEB-1080P]兜风[中文字幕].Joyride.2022.1080p.WEB-DL.H264.DDP5.1- 0.85GB
回复

使用道具 举报

您需要登录后才可以回帖 登录 | 立即注册

本版积分规则

Archiver|手机版|小众纪录片影视聚合

GMT+8, 2024-7-25 03:23 , Processed in 0.102378 second(s), 12 queries , Gzip On, Redis On.

Powered by 小众纪录片影视聚合 @2010-2023

Copyright © 2010-2024, https://www.xzjlp.com/.


免责说明:本站所有内容链接、图文介绍等均来自于互联网网友分享,本站仅支持web页面展示和文字介绍,绝不提供在线观看和存储服务,也不参与录制、上传、压片。若本站收录内容无意侵犯贵司版权,请发邮件到【a885185#163.com】联系本站,我们将在第一时间删除侵权内容。谢谢!

快速回复 返回顶部 返回列表