小众纪录片影视聚合

 找回密码
 立即注册
查看: 4|回复: 0

[蓝光电影] [更 早][其它][剧情][BD-1080P]人啊人[简繁英字幕].Humanity.1999.1080p.BluRay.x264.DTS- 13.61GB

[复制链接]

116万

主题

116万

帖子

116万

积分

超级版主

Rank: 8Rank: 8

积分
1167997
发表于 2024-7-9 21:18:37 | 显示全部楼层 |阅读模式


[更 早][其它][剧情][BD-1080P]人啊人[简繁英字幕].Humanity.1999.1080p.BluRay.x264.DTS- 13.61GB

完整标题:人啊人[简繁英字幕].Humanity.1999.1080p.BluRay.x264.DTS-SONYHD 13.61GB
◎标  题 人啊人
◎译  名 人,性本色 / Humanity / 人道 / 人性 / La humanidad
◎片  名 L'humanité
◎年  代 1999
◎产  地 法国
◎类  别 剧情 / 悬疑
◎语  言 法语 / 英语
◎上映日期 1999-05-17(戛纳电影节) / 1999-10-27(法国)
◎IMDb评分 6.8/10 (4876人评价)
◎IMDb链接 https://www.imdb.com/title/tt0197569/
◎豆瓣评分 7.2/10 (2301人评价)
◎豆瓣链接 https://movie.douban.com/subject/1304869/
◎片  长 148 分钟
◎导  演 布鲁诺·杜蒙 Bruno Dumont
◎编  剧 布鲁诺·杜蒙 Bruno Dumont
◎演  员 艾曼纽·斯高顿 Emmanuel Schotté
       赛芙琳·卡尼尔 Séverine Caneele
       西尔薇·维尔海迪 Sylvie Verheyde
◎简  介
    年近三十的法拉(艾曼纽·斯高顿 Emmanuel Schotté 饰)是一名警察,至今仍和母亲同住的他有着一颗异常单纯而敏感的心,在他的心里住着一个名叫朵蜜诺(赛芙琳·卡尼尔 Séverine Caneele 饰)的女孩,可是这个女孩却是自己最好的朋友的女朋友,这让法拉感到既痛苦又沮丧。其实朵蜜诺对老实可靠的法拉也心生好感,可她离不开男友带给自己的肉体上的快感,在愧疚中她只能一次次的用余光向法拉发出求救的信号。                                    一宗少女奸杀案让法拉所在的小镇炸了锅,而查找真凶的重任则落在了法拉的肩上,怀着对凶手的愤怒和对受害者的怜悯,法拉发誓一定要查明真相,而在追凶的过程中,法拉领略到了人性中那既美好又丑恶的独特的风光。##### MediaInfo ######
General
Unique ID                                : 53024180387118896182492159841276600755 (0x27E415EF05433EA18AFAAA98BF1921B3)
Complete name                            : Humanity.1999.1080p.BluRay.x264.DTS-SONYHD.mkv
Duration                                 : 2 h 28 min
Overall bit rate                         : 13.1 Mb/s
Video
ID                                       : 1
Format                                   : AVC
Format/Info                              : Advanced Video Codec
Format profile                           : [email protected]
Format settings                          : CABAC / 4 Ref Frames
Format settings, CABAC                   : Yes
Format settings, Reference frames        : 4 frames
Codec ID                                 : V_MPEG4/ISO/AVC
Duration                                 : 2 h 28 min
Bit rate                                 : 11.6 Mb/s
Width                                    : 1 920 pixels
Height                                   : 816 pixels
Display aspect ratio                     : 2.35:1
Frame rate mode                          : Constant
Frame rate                               : 23.976 (24000/1001) FPS
Color space                              : YUV
Chroma subsampling                       : 4:2:0
Bit depth                                : 8 bits
Scan type                                : Progressive
Bits/(Pixel*Frame)                       : 0.309
Stream size                              : 12.0 GiB (88%)
Writing library                          : x264 core 164 r3085+55M 938b6d0 t_mod_New [(8 & 10)-bit@all X86_64]
Encoding settings                        : cabac=1 / ref=4 / deblock=1:-3:-3 / analyse=0x3:0x133 / me=umh / subme=11 / psy=1 / fade_compensate=0.00 / psy_rd=1.00:0.00 / mixed_ref=1 / me_range=48 / chroma_me=1 / trellis=2 / 8x8dct=1 / cqm=0 / deadzone=21,11 / fast_pskip=0 / chroma_qp_offset=-3 / threads=25 / lookahead_threads=6 / sliced_threads=0 / nr=0 / decimate=0 / interlaced=0 / bluray_compat=0 / constrained_intra=0 / fgo=0 / bframes=11 / b_pyramid=2 / b_adapt=2 / b_bias=0 / direct=3 / weightb=1 / open_gop=0 / weightp=2 / keyint=240 / keyint_min=1 / scenecut=40 / intra_refresh=0 / rc_lookahead=72 / rc=crf / mbtree=0 / crf=17.5900 / qcomp=0.67 / qpmin=0:0:0 / qpmax=69:69:69 / qpstep=4 / vbv_maxrate=62500 / vbv_bufsize=78125 / crf_max=0.0 / nal_hrd=none / filler=0 / ip_ratio=1.40 / pb_ratio=1.30 / aq=3:0.84 / aq-sensitivity=10.00 / aq-factor=1.00:1.00:1.00 / aq2=0 / aq3=0
Default                                  : Yes
Forced                                   : No
Audio
ID                                       : 2
ID in the original source medium         : 4352 (0x1100)
Format                                   : DTS
Format/Info                              : Digital Theater Systems
Codec ID                                 : A_DTS
Duration                                 : 2 h 28 min
Bit rate mode                            : Constant
Bit rate                                 : 1 509 kb/s
Channel(s)                               : 6 channels
Channel layout                           : C L R Ls Rs LFE
Sampling rate                            : 48.0 kHz
Frame rate                               : 93.750 FPS (512 SPF)
Bit depth                                : 24 bits
Compression mode                         : Lossy
Stream size                              : 1.56 GiB (11%)
Title                                    : French
Language                                 : French
Default                                  : Yes
Forced                                   : No
Original source medium                   : Blu-ray
Text #1
ID                                       : 3
ID in the original source medium         : 4609 (0x1201)
Format                                   : PGS
Muxing mode                              : zlib
Codec ID                                 : S_HDMV/PGS
Codec ID/Info                            : Picture based subtitle format used on BDs/HD-DVDs
Duration                                 : 2 h 18 min
Bit rate                                 : 12.4 kb/s
Frame rate                               : 0.124 FPS
Count of elements                        : 1028
Stream size                              : 12.3 MiB (0%)
Title                                    : chs&eng
Language                                 : Chinese
Default                                  : Yes
Forced                                   : No
Original source medium                   : Blu-ray
Text #2
ID                                       : 4
ID in the original source medium         : 4610 (0x1202)
Format                                   : PGS
Muxing mode                              : zlib
Codec ID                                 : S_HDMV/PGS
Codec ID/Info                            : Picture based subtitle format used on BDs/HD-DVDs
Duration                                 : 2 h 18 min
Bit rate                                 : 12.4 kb/s
Frame rate                               : 0.124 FPS
Count of elements                        : 1028
Stream size                              : 12.3 MiB (0%)
Title                                    : cht&eng
Language                                 : Chinese
Default                                  : No
Forced                                   : No
Original source medium                   : Blu-ray
Text #3
ID                                       : 5
ID in the original source medium         : 4611 (0x1203)
Format                                   : PGS
Muxing mode                              : zlib
Codec ID                                 : S_HDMV/PGS
Codec ID/Info                            : Picture based subtitle format used on BDs/HD-DVDs
Duration                                 : 2 h 18 min
Bit rate                                 : 7 147 b/s
Frame rate                               : 0.124 FPS
Count of elements                        : 1028
Stream size                              : 7.09 MiB (0%)
Title                                    : chs
Language                                 : Chinese
Default                                  : No
Forced                                   : No
Original source medium                   : Blu-ray
Text #4
ID                                       : 6
ID in the original source medium         : 4612 (0x1204)
Format                                   : PGS
Muxing mode                              : zlib
Codec ID                                 : S_HDMV/PGS
Codec ID/Info                            : Picture based subtitle format used on BDs/HD-DVDs
Duration                                 : 2 h 18 min
Bit rate                                 : 7 169 b/s
Frame rate                               : 0.124 FPS
Count of elements                        : 1028
Stream size                              : 7.11 MiB (0%)
Title                                    : cht
Language                                 : Chinese
Default                                  : No
Forced                                   : No
Original source medium                   : Blu-ray
Text #5
ID                                       : 7
ID in the original source medium         : 4608 (0x1200)
Format                                   : PGS
Muxing mode                              : zlib
Codec ID                                 : S_HDMV/PGS
Codec ID/Info                            : Picture based subtitle format used on BDs/HD-DVDs
Duration                                 : 2 h 15 min
Bit rate                                 : 11.7 kb/s
Frame rate                               : 0.130 FPS
Count of elements                        : 1054
Stream size                              : 11.3 MiB (0%)
Title                                    : eng
Language                                 : English
Default                                  : No
Forced                                   : No
Original source medium                   : Blu-ray
Menu
00:00:00.000                             : en:A body in a field
00:06:23.925                             : en:The boss
00:08:08.279                             : en:Domino
00:15:04.028                             : en:Bike ride
00:21:03.929                             : en:Dominos invitation
00:25:37.536                             : en:A rowdy dinner
00:30:22.654                             : en:Community garden
00:36:40.907                             : en:A day at the beach
00:45:15.004                             : en:Pharaons friend
00:50:03.876                             : en:Police work
00:58:07.651                             : en:Interviewing children
01:05:13.576                             : en:The Eurostar
01:12:45.194                             : en:Dont look so upset
01:18:19.904                             : en:The loan
01:24:04.581                             : en:The factory
01:28:31.389                             : en:Interrogation
01:32:53.276                             : en:Strike
01:35:05.992                             : en:Day trips
01:42:36.984                             : en:Invitation
01:45:43.420                             : en:Protest
01:51:39.985                             : en:Mental hospital
02:01:15.310                             : en:Pharaon and Domino
02:09:15.623                             : en:Wait for me here
02:12:58.179                             : en:Conversation in the street
02:17:00.629                             : en:A suspect
02:25:07.324                             : en:End credits
部分资源为软字幕,移动端推荐播放器:MxPlayer,nPlayer,infuse ,其他播放器请自行尝试。
部分资源为软字幕,电脑端推荐播放器:PotPlayer,完美解码,KMPLAYER,其他播放器请自行尝试。






~~~~~~~~~~~~~~~~~~~~~~~~~~~~~~~~~~~~~~~~~
[更 早][其它][剧情][BD-1080P]人啊人[简繁英字幕].Humanity.1999.1080p.BluRay.x264.DTS- 13.61GB

【文件列表】:


Humanity.1999.1080p.BluRay.x264.DTS-SONYHD.



【下载地址列表】:


游客
文件下载链接就在这里,在您回复评论成功后才能显示。
请勿回复无意义的灌水内容。


下拉页面到最底部回复或者【点击此处快捷回复】,回复后返回此处即可查看下载链接。
如您没注册本站会员,可以点击注册本站,注册后即可回复下载。



软字幕无法在截图上展现,HDR版本/杜比视界版本截图会出现颜色异常,请使用支持的设备播放!






[img][/img]






[img][/img]

(HDR版本/杜比视界版本,截图会出现颜色异常,请使用支持的设备播放)

小贴士:【影视自媒体解说文案请移步:夏至文案解说网 www.xiazhi.vip

上一篇:[更 早][韩国][剧情][BD-1080P]偷情家族[中文字幕].A.Good.Lawyer's.Wife.2003.BluRay.1080p.AAC.x264- 3.12GB
下一篇:[更 早][其它][剧情][BD-1080P]人啊人[简繁英字幕].Humanity.1999.1080p.BluRay.x265.10bit.DTS- 9.28GB
回复

使用道具 举报

您需要登录后才可以回帖 登录 | 立即注册

本版积分规则

Archiver|手机版|小众纪录片影视聚合

GMT+8, 2024-7-24 23:53 , Processed in 0.117374 second(s), 12 queries , Gzip On, Redis On.

Powered by 小众纪录片影视聚合 @2010-2023

Copyright © 2010-2024, https://www.xzjlp.com/.


免责说明:本站所有内容链接、图文介绍等均来自于互联网网友分享,本站仅支持web页面展示和文字介绍,绝不提供在线观看和存储服务,也不参与录制、上传、压片。若本站收录内容无意侵犯贵司版权,请发邮件到【a885185#163.com】联系本站,我们将在第一时间删除侵权内容。谢谢!

快速回复 返回顶部 返回列表