小众纪录片影视聚合

 找回密码
 立即注册
查看: 10|回复: 0

[蓝光电影] [更 早][其它][剧情][BD-1080P]人啊人[简繁英字幕].Humanity.1999.1080p.BluRay.x265.10bit.DTS- 9.28GB

[复制链接]

113万

主题

113万

帖子

113万

积分

超级版主

Rank: 8Rank: 8

积分
1134494
发表于 2024-7-9 21:18:40 | 显示全部楼层 |阅读模式


[更 早][其它][剧情][BD-1080P]人啊人[简繁英字幕].Humanity.1999.1080p.BluRay.x265.10bit.DTS- 9.28GB

完整标题:人啊人[简繁英字幕].Humanity.1999.1080p.BluRay.x265.10bit.DTS-SONYHD 9.28GB
◎标  题 人啊人
◎译  名 人,性本色 / Humanity / 人道 / 人性 / La humanidad
◎片  名 L'humanité
◎年  代 1999
◎产  地 法国
◎类  别 剧情 / 悬疑
◎语  言 法语 / 英语
◎上映日期 1999-05-17(戛纳电影节) / 1999-10-27(法国)
◎IMDb评分 6.8/10 (4876人评价)
◎IMDb链接 https://www.imdb.com/title/tt0197569/
◎豆瓣评分 7.2/10 (2301人评价)
◎豆瓣链接 https://movie.douban.com/subject/1304869/
◎片  长 148 分钟
◎导  演 布鲁诺·杜蒙 Bruno Dumont
◎编  剧 布鲁诺·杜蒙 Bruno Dumont
◎演  员 艾曼纽·斯高顿 Emmanuel Schotté
       赛芙琳·卡尼尔 Séverine Caneele
       西尔薇·维尔海迪 Sylvie Verheyde
◎简  介
    年近三十的法拉(艾曼纽·斯高顿 Emmanuel Schotté 饰)是一名警察,至今仍和母亲同住的他有着一颗异常单纯而敏感的心,在他的心里住着一个名叫朵蜜诺(赛芙琳·卡尼尔 Séverine Caneele 饰)的女孩,可是这个女孩却是自己最好的朋友的女朋友,这让法拉感到既痛苦又沮丧。其实朵蜜诺对老实可靠的法拉也心生好感,可她离不开男友带给自己的肉体上的快感,在愧疚中她只能一次次的用余光向法拉发出求救的信号。                                    一宗少女奸杀案让法拉所在的小镇炸了锅,而查找真凶的重任则落在了法拉的肩上,怀着对凶手的愤怒和对受害者的怜悯,法拉发誓一定要查明真相,而在追凶的过程中,法拉领略到了人性中那既美好又丑恶的独特的风光。##### MediaInfo ######
General
Unique ID                                : 107297023498873800298388751102466737841 (0x50B8A7B15B8308ED187A9DB50FFA46B1)
Complete name                            : Humanity.1999.1080p.BluRay.x265.10bit.DTS-SONYHD.mkv
Duration                                 : 2 h 28 min
Overall bit rate                         : 8 957 kb/s
Video
ID                                       : 1
Format                                   : HEVC
Format/Info                              : High Efficiency Video Coding
Format profile                           : Main 10@L4@Main
Codec ID                                 : V_MPEGH/ISO/HEVC
Duration                                 : 2 h 28 min
Bit rate                                 : 7 427 kb/s
Width                                    : 1 920 pixels
Height                                   : 816 pixels
Display aspect ratio                     : 2.35:1
Frame rate mode                          : Constant
Frame rate                               : 23.976 (24000/1001) FPS
Color space                              : YUV
Chroma subsampling                       : 4:2:0
Bit depth                                : 10 bits
Bits/(Pixel*Frame)                       : 0.198
Stream size                              : 7.69 GiB (83%)
Writing library                          : x265 3.5g2b25c9ba0+45:[Windows][GCC 10.2.0][64 bit] Yuuki 10bit+8bit+12bit
Encoding settings                        : rc=crf / crf=16.0000 / qcomp=0.60 / qpstep=4 / stats-write=0 / stats-read=0 / no-lossless / no-cu-lossless / aq-mode=3 / aq-strength=0.90 / cbqpoffs=0 / crqpoffs=0 / ipratio=1.40 / pbratio=1.30 / psy-rd=2.00 / psy-rdoq=0.00 / deblock=0:0 / ref=6 / limit-refs=1 / no-limit-modes / bframes=8 / b-adapt=2 / bframe-bias=0 / b-pyramid / b-intra / weightp / weightb / min-keyint=24 / max-keyint=240 / rc-lookahead=24 / gop-lookahead=0 / scenecut=40 / hist-scenecut=0 / radl=0 / max-cu-size=64 / min-cu-size=8 / me=3 / subme=7 / merange=48 / rdoq-level=0 / rd=4 / rdpenalty=0 / dynamic-rd=0.00 / no-rd-refine / ----- / cutree / sao / no-rect / no-amp / no-open-gop / wpp / no-pmode / no-pme / no-psnr / no-ssim / nr-intra=0 / nr-inter=0 / no-constrained-intra / no-strong-intra-smoothing / max-tu-size=32 / tu-inter-depth=1 / tu-intra-depth=1 / limit-tu=0 / qg-size=32 / qpmax=69 / qpmin=0 / ----- / cpuid=1111039 / frame-threads=4 / numa-pools=+ / log-level=2 / input-csp=1 / input-res=1920x816 / interlace=0 / level-idc=0 / high-tier=1 / uhd-bd=0 / no-allow-non-conformance / repeat-headers / aud / no-hrd / info / hash=0 / no-temporal-layers / lookahead-slices=0 / no-splice / no-intra-refresh / no-ssim-rd / signhide / no-tskip / max-merge=3 / temporal-mvp / no-frame-dup / no-hme / no-analyze-src-pics / no-sao-non-deblock / selective-sao=4 / early-skip / rskip / no-fast-intra / no-tskip-fast / no-splitrd-skip / zone-count=0 / no-strict-cbr / no-rc-grain / no-const-vbv / sar=0 / overscan=0 / videoformat=5 / range=0 / colorprim=2 / transfer=2 / colormatrix=2 / chromaloc=0 / display-window=0 / cll=0,0 / min-luma=0 / max-luma=1023 / log2-max-poc-lsb=8 / vui-timing-info / vui-hrd-info / slices=1 / no-opt-qp-pps / no-opt-ref-list-length-pps / no-multi-pass-opt-rps / scenecut-bias=0.05 / hist-threshold=0.03 / no-opt-cu-delta-qp / no-aq-motion / no-hdr10 / no-hdr10-opt / no-dhdr10-opt / no-idr-recovery-sei / analysis-reuse-level=0 / analysis-save-reuse-level=0 / analysis-load-reuse-level=0 / scale-factor=0 / refine-intra=0 / refine-inter=0 / refine-mv=1 / refine-ctu-distortion=0 / no-limit-sao / ctu-info=0 / no-lowpass-dct / refine-analysis-type=0 / copy-pic=1 / max-ausize-factor=1.0 / no-dynamic-refine / no-single-sei / no-hevc-aq / no-svt / no-field / qp-adaptation-range=1.00 / scenecut-aware-qp=0conformance-window-offsets / right=0 / bottom=0 / decoder-max-rate=0 / no-vbv-live-multi-pass
Default                                  : Yes
Forced                                   : No
Audio
ID                                       : 2
ID in the original source medium         : 4352 (0x1100)
Format                                   : DTS
Format/Info                              : Digital Theater Systems
Codec ID                                 : A_DTS
Duration                                 : 2 h 28 min
Bit rate mode                            : Constant
Bit rate                                 : 1 509 kb/s
Channel(s)                               : 6 channels
Channel layout                           : C L R Ls Rs LFE
Sampling rate                            : 48.0 kHz
Frame rate                               : 93.750 FPS (512 SPF)
Bit depth                                : 24 bits
Compression mode                         : Lossy
Stream size                              : 1.56 GiB (17%)
Title                                    : French
Language                                 : French
Default                                  : Yes
Forced                                   : No
Original source medium                   : Blu-ray
Text #1
ID                                       : 3
ID in the original source medium         : 4609 (0x1201)
Format                                   : PGS
Muxing mode                              : zlib
Codec ID                                 : S_HDMV/PGS
Codec ID/Info                            : Picture based subtitle format used on BDs/HD-DVDs
Duration                                 : 2 h 18 min
Bit rate                                 : 12.4 kb/s
Frame rate                               : 0.124 FPS
Count of elements                        : 1028
Stream size                              : 12.3 MiB (0%)
Title                                    : chs&eng
Language                                 : Chinese
Default                                  : Yes
Forced                                   : No
Original source medium                   : Blu-ray
Text #2
ID                                       : 4
ID in the original source medium         : 4610 (0x1202)
Format                                   : PGS
Muxing mode                              : zlib
Codec ID                                 : S_HDMV/PGS
Codec ID/Info                            : Picture based subtitle format used on BDs/HD-DVDs
Duration                                 : 2 h 18 min
Bit rate                                 : 12.4 kb/s
Frame rate                               : 0.124 FPS
Count of elements                        : 1028
Stream size                              : 12.3 MiB (0%)
Title                                    : cht&eng
Language                                 : Chinese
Default                                  : No
Forced                                   : No
Original source medium                   : Blu-ray
Text #3
ID                                       : 5
ID in the original source medium         : 4611 (0x1203)
Format                                   : PGS
Muxing mode                              : zlib
Codec ID                                 : S_HDMV/PGS
Codec ID/Info                            : Picture based subtitle format used on BDs/HD-DVDs
Duration                                 : 2 h 18 min
Bit rate                                 : 7 147 b/s
Frame rate                               : 0.124 FPS
Count of elements                        : 1028
Stream size                              : 7.09 MiB (0%)
Title                                    : chs
Language                                 : Chinese
Default                                  : No
Forced                                   : No
Original source medium                   : Blu-ray
Text #4
ID                                       : 6
ID in the original source medium         : 4612 (0x1204)
Format                                   : PGS
Muxing mode                              : zlib
Codec ID                                 : S_HDMV/PGS
Codec ID/Info                            : Picture based subtitle format used on BDs/HD-DVDs
Duration                                 : 2 h 18 min
Bit rate                                 : 7 169 b/s
Frame rate                               : 0.124 FPS
Count of elements                        : 1028
Stream size                              : 7.11 MiB (0%)
Title                                    : cht
Language                                 : Chinese
Default                                  : No
Forced                                   : No
Original source medium                   : Blu-ray
Text #5
ID                                       : 7
ID in the original source medium         : 4608 (0x1200)
Format                                   : PGS
Muxing mode                              : zlib
Codec ID                                 : S_HDMV/PGS
Codec ID/Info                            : Picture based subtitle format used on BDs/HD-DVDs
Duration                                 : 2 h 15 min
Bit rate                                 : 11.7 kb/s
Frame rate                               : 0.130 FPS
Count of elements                        : 1054
Stream size                              : 11.3 MiB (0%)
Title                                    : eng
Language                                 : English
Default                                  : No
Forced                                   : No
Original source medium                   : Blu-ray
Menu
00:00:00.000                             : en:A body in a field
00:06:23.925                             : en:The boss
00:08:08.279                             : en:Domino
00:15:04.028                             : en:Bike ride
00:21:03.929                             : en:Dominos invitation
00:25:37.536                             : en:A rowdy dinner
00:30:22.654                             : en:Community garden
00:36:40.907                             : en:A day at the beach
00:45:15.004                             : en:Pharaons friend
00:50:03.876                             : en:Police work
00:58:07.651                             : en:Interviewing children
01:05:13.576                             : en:The Eurostar
01:12:45.194                             : en:Dont look so upset
01:18:19.904                             : en:The loan
01:24:04.581                             : en:The factory
01:28:31.389                             : en:Interrogation
01:32:53.276                             : en:Strike
01:35:05.992                             : en:Day trips
01:42:36.984                             : en:Invitation
01:45:43.420                             : en:Protest
01:51:39.985                             : en:Mental hospital
02:01:15.310                             : en:Pharaon and Domino
02:09:15.623                             : en:Wait for me here
02:12:58.179                             : en:Conversation in the street
02:17:00.629                             : en:A suspect
02:25:07.324                             : en:End credits
部分资源为软字幕,移动端推荐播放器:MxPlayer,nPlayer,infuse ,其他播放器请自行尝试。
部分资源为软字幕,电脑端推荐播放器:PotPlayer,完美解码,KMPLAYER,其他播放器请自行尝试。






~~~~~~~~~~~~~~~~~~~~~~~~~~~~~~~~~~~~~~~~~
[更 早][其它][剧情][BD-1080P]人啊人[简繁英字幕].Humanity.1999.1080p.BluRay.x265.10bit.DTS- 9.28GB

【文件列表】:


Humanity.1999.1080p.BluRay.x265.10bit.DTS-SONYHD.



【下载地址列表】:


游客
文件下载链接就在这里,在您回复评论成功后才能显示。
请勿回复无意义的灌水内容。


下拉页面到最底部回复或者【点击此处快捷回复】,回复后返回此处即可查看下载链接。
如您没注册本站会员,可以点击注册本站,注册后即可回复下载。



软字幕无法在截图上展现,HDR版本/杜比视界版本截图会出现颜色异常,请使用支持的设备播放!






[img][/img]






[img][/img]

(HDR版本/杜比视界版本,截图会出现颜色异常,请使用支持的设备播放)

小贴士:【影视自媒体解说文案请移步:夏至文案解说网 www.xiazhi.vip

上一篇:[更 早][其它][剧情][BD-1080P]人啊人[简繁英字幕].Humanity.1999.1080p.BluRay.x264.DTS- 13.61GB
下一篇:[更 早][欧美][剧情][BD-1080P]花村[简繁英字幕].McCabe.&.Mrs.Miller.1971.CC.1080p.BluRay.x264.FLAC.1.0- 10.2
回复

使用道具 举报

您需要登录后才可以回帖 登录 | 立即注册

本版积分规则

Archiver|手机版|小众纪录片影视聚合

GMT+8, 2024-7-22 06:02 , Processed in 0.136604 second(s), 13 queries , Gzip On, Redis On.

Powered by 小众纪录片影视聚合 @2010-2023

Copyright © 2010-2024, https://www.xzjlp.com/.


免责说明:本站所有内容链接、图文介绍等均来自于互联网网友分享,本站仅支持web页面展示和文字介绍,绝不提供在线观看和存储服务,也不参与录制、上传、压片。若本站收录内容无意侵犯贵司版权,请发邮件到【a885185#163.com】联系本站,我们将在第一时间删除侵权内容。谢谢!

快速回复 返回顶部 返回列表