小众纪录片影视聚合

 找回密码
 立即注册
查看: 11|回复: 0

[蓝光电影] [更 早][欧美][剧情][BD-1080P]花村[简繁英字幕].McCabe.&.Mrs.Miller.1971.CC.1080p.BluRay.x264.FLAC.1.0- 10.2

[复制链接]

113万

主题

113万

帖子

113万

积分

超级版主

Rank: 8Rank: 8

积分
1134020
发表于 2024-7-9 21:18:43 | 显示全部楼层 |阅读模式


[更 早][欧美][剧情][BD-1080P]花村[简繁英字幕].McCabe.&.Mrs.Miller.1971.CC.1080p.BluRay.x264.FLAC.1.0- 10.2

完整标题:花村[简繁英字幕].McCabe.&.Mrs.Miller.1971.CC.1080p.BluRay.x264.FLAC.1.0-SONYHD 10.21GB
◎标  题 花村
◎译  名 江湖豪客俏佳人(港) / 雌雄赌徒 / 寂恋春楼 / 麦凯比与米勒夫人 / 麦克科伯和密勒太太
◎片  名 McCabe & Mrs. Miller
◎年  代 1971
◎产  地 美国
◎类  别 剧情 / 西部
◎语  言 英语 / 粤语
◎上映日期 1971-06-24(美国)
◎IMDb评分 7.6/10 (26291人评价)
◎IMDb链接 https://www.imdb.com/title/tt0067411/
◎豆瓣评分 7.9/10 (3024人评价)
◎豆瓣链接 https://movie.douban.com/subject/1293950/
◎片  长 120分钟
◎导  演 罗伯特·奥特曼 Robert Altman
◎编  剧 埃德蒙·诺顿 Edmund Naughton
       罗伯特·奥特曼 Robert Altman
       布瑞恩·麦凯 Brian McKay
◎演  员 沃伦·比蒂 Warren Beatty
       朱莉·克里斯蒂 Julie Christie
       勒内·奥贝尔若努瓦 Rene Auberjonois
       威廉姆·德瓦内 William Devane
       约翰·舒克 John Schuck
       科里·费希尔 Corey Fischer
       伯特·莱姆森 Bert Remsen
       谢莉·杜瓦尔 Shelley Duvall
       基思·卡拉丹 Keith Carradine
       迈克尔·墨菲 Michael Murphy
       安东尼·荷兰 Antony Holland
       休·米莱斯 Hugh Millais
◎简  介
    故事发生在生存环境十分恶劣,资源严重匮乏的荒凉西部。一个名为约翰(沃伦·比蒂 Warren Beatty 饰)的男人来到此地,凭借着智慧和勇气力排众议开设了一间妓院,为自己在小镇上挣得了一席之地。                                    随着时间的推移,约翰的生意越来越红火,就连远近闻名的当家头牌米勒夫人(朱莉·克里斯蒂 Julie Christie 饰)亦慕名而来入了伙。在朝夕相处的过程中,风流倜傥前途无量的约翰吸引了米勒了注意,前者亦为米勒的无限风情所折腰,情投意合的两人渐渐走到了一起。就在这个节骨眼上,小镇上又来了一个外来客,他成为了约翰在事业上最大的竞争对手。究竟是妥协还是抗争到底,约翰有着自己的打算。##### MediaInfo ######
General
Unique ID                                : 336584293217806034362256289992906474609 (0xFD37C6E3B210AC833D1C9D6B15558471)
Complete name                            : McCabe.&.Mrs.Miller.1971.CC.1080p.BluRay.x264.FLAC.1.0-SONYHD.mkv
Duration                                 : 2 h 1 min
Overall bit rate mode                    : Variable
Overall bit rate                         : 12.1 Mb/s
Video
ID                                       : 1
Format                                   : AVC
Format/Info                              : Advanced Video Codec
Format profile                           : [email protected]
Format settings                          : CABAC / 4 Ref Frames
Format settings, CABAC                   : Yes
Format settings, Reference frames        : 4 frames
Codec ID                                 : V_MPEG4/ISO/AVC
Duration                                 : 2 h 1 min
Bit rate                                 : 11.7 Mb/s
Width                                    : 1 920 pixels
Height                                   : 800 pixels
Display aspect ratio                     : 2.40:1
Frame rate mode                          : Constant
Frame rate                               : 23.976 (24000/1001) FPS
Color space                              : YUV
Chroma subsampling                       : 4:2:0
Bit depth                                : 8 bits
Scan type                                : Progressive
Bits/(Pixel*Frame)                       : 0.317
Stream size                              : 9.90 GiB (97%)
Writing library                          : x264 core 164 r3107+55M 1028c06 t_mod_New [(8 & 10)-bit@all X86_64]
Encoding settings                        : cabac=1 / ref=4 / deblock=1:-3:-3 / analyse=0x3:0x133 / me=umh / subme=11 / psy=1 / fade_compensate=0.00 / psy_rd=1.00:0.00 / mixed_ref=1 / me_range=48 / chroma_me=1 / trellis=2 / 8x8dct=1 / cqm=0 / deadzone=21,11 / fast_pskip=0 / chroma_qp_offset=-3 / threads=25 / lookahead_threads=6 / sliced_threads=0 / nr=0 / decimate=0 / interlaced=0 / bluray_compat=0 / constrained_intra=0 / fgo=0 / bframes=11 / b_pyramid=2 / b_adapt=2 / b_bias=0 / direct=3 / weightb=1 / open_gop=0 / weightp=2 / keyint=240 / keyint_min=1 / scenecut=40 / intra_refresh=0 / rc_lookahead=72 / rc=crf / mbtree=0 / crf=20.5000 / qcomp=0.60 / qpmin=0:0:0 / qpmax=69:69:69 / qpstep=4 / vbv_maxrate=62500 / vbv_bufsize=78125 / crf_max=0.0 / nal_hrd=none / filler=0 / ip_ratio=1.40 / pb_ratio=1.30 / aq=3:0.70 / aq-sensitivity=10.00 / aq-factor=1.00:1.00:1.00 / aq2=0 / aq3=0
Language                                 : English
Default                                  : Yes
Forced                                   : No
Audio
ID                                       : 2
Format                                   : FLAC
Format/Info                              : Free Lossless Audio Codec
Codec ID                                 : A_FLAC
Duration                                 : 2 h 1 min
Bit rate mode                            : Variable
Bit rate                                 : 271 kb/s
Channel(s)                               : 1 channel
Channel layout                           : C
Sampling rate                            : 48.0 kHz
Frame rate                               : 11.719 FPS (4096 SPF)
Bit depth                                : 16 bits
Compression mode                         : Lossless
Stream size                              : 235 MiB (2%)
Writing library                          : libFLAC 1.2.1 (UTC 2007-09-17)
Language                                 : English
Default                                  : Yes
Forced                                   : No
Text #1
ID                                       : 3
ID in the original source medium         : 4609 (0x1201)
Format                                   : PGS
Muxing mode                              : zlib
Codec ID                                 : S_HDMV/PGS
Codec ID/Info                            : Picture based subtitle format used on BDs/HD-DVDs
Duration                                 : 2 h 0 min
Bit rate                                 : 53.5 kb/s
Frame rate                               : 0.397 FPS
Count of elements                        : 2881
Stream size                              : 46.2 MiB (0%)
Title                                    : chs&eng
Language                                 : Chinese
Default                                  : Yes
Forced                                   : No
Original source medium                   : Blu-ray
Text #2
ID                                       : 4
ID in the original source medium         : 4610 (0x1202)
Format                                   : PGS
Muxing mode                              : zlib
Codec ID                                 : S_HDMV/PGS
Codec ID/Info                            : Picture based subtitle format used on BDs/HD-DVDs
Duration                                 : 2 h 0 min
Bit rate                                 : 53.7 kb/s
Frame rate                               : 0.397 FPS
Count of elements                        : 2881
Stream size                              : 46.4 MiB (0%)
Title                                    : cht&eng
Language                                 : Chinese
Default                                  : No
Forced                                   : No
Original source medium                   : Blu-ray
Text #3
ID                                       : 5
ID in the original source medium         : 4611 (0x1203)
Format                                   : PGS
Muxing mode                              : zlib
Codec ID                                 : S_HDMV/PGS
Codec ID/Info                            : Picture based subtitle format used on BDs/HD-DVDs
Duration                                 : 2 h 0 min
Bit rate                                 : 32.5 kb/s
Frame rate                               : 0.397 FPS
Count of elements                        : 2881
Stream size                              : 28.1 MiB (0%)
Title                                    : chs
Language                                 : Chinese
Default                                  : No
Forced                                   : No
Original source medium                   : Blu-ray
Text #4
ID                                       : 6
ID in the original source medium         : 4612 (0x1204)
Format                                   : PGS
Muxing mode                              : zlib
Codec ID                                 : S_HDMV/PGS
Codec ID/Info                            : Picture based subtitle format used on BDs/HD-DVDs
Duration                                 : 2 h 0 min
Bit rate                                 : 32.7 kb/s
Frame rate                               : 0.397 FPS
Count of elements                        : 2881
Stream size                              : 28.3 MiB (0%)
Title                                    : cht
Language                                 : Chinese
Default                                  : No
Forced                                   : No
Original source medium                   : Blu-ray
Text #5
ID                                       : 7
ID in the original source medium         : 4608 (0x1200)
Format                                   : PGS
Muxing mode                              : zlib
Codec ID                                 : S_HDMV/PGS
Codec ID/Info                            : Picture based subtitle format used on BDs/HD-DVDs
Duration                                 : 2 h 0 min
Bit rate                                 : 58.9 kb/s
Frame rate                               : 0.442 FPS
Count of elements                        : 3204
Stream size                              : 50.9 MiB (0%)
Title                                    : eng
Language                                 : English
Default                                  : No
Forced                                   : No
Original source medium                   : Blu-ray
Menu
00:00:00.000                             : en:Chapter 01
00:04:58.965                             : en:Chapter 02
00:15:58.958                             : en:Chapter 03
00:23:57.352                             : en:Chapter 04
00:27:00.744                             : en:Chapter 05
00:35:39.095                             : en:Chapter 06
00:39:30.951                             : en:Chapter 07
00:49:11.907                             : en:Chapter 08
00:56:59.416                             : en:Chapter 09
01:06:17.139                             : en:Chapter 10
01:14:43.061                             : en:Chapter 11
01:24:31.858                             : en:Chapter 12
01:26:49.913                             : en:Chapter 13
01:32:01.766                             : en:Chapter 14
01:35:25.761                             : en:Chapter 15
01:39:18.327                             : en:Chapter 16
01:48:23.788                             : en:Chapter 17
01:54:31.364                             : en:Chapter 18
01:58:11.167                             : en:Chapter 19
部分资源为软字幕,移动端推荐播放器:MxPlayer,nPlayer,infuse ,其他播放器请自行尝试。
部分资源为软字幕,电脑端推荐播放器:PotPlayer,完美解码,KMPLAYER,其他播放器请自行尝试。






~~~~~~~~~~~~~~~~~~~~~~~~~~~~~~~~~~~~~~~~~
[更 早][欧美][剧情][BD-1080P]花村[简繁英字幕].McCabe.&.Mrs.Miller.1971.CC.1080p.BluRay.x264.FLAC.1.0- 10.2

【文件列表】:


McCabe.&.Mrs.Miller.1971.CC.1080p.BluRay.x264.FLAC.1.0-SONYHD.



【下载地址列表】:


游客
文件下载链接就在这里,在您回复评论成功后才能显示。
请勿回复无意义的灌水内容。


下拉页面到最底部回复或者【点击此处快捷回复】,回复后返回此处即可查看下载链接。
如您没注册本站会员,可以点击注册本站,注册后即可回复下载。



软字幕无法在截图上展现,HDR版本/杜比视界版本截图会出现颜色异常,请使用支持的设备播放!






[img][/img]






[img][/img]

(HDR版本/杜比视界版本,截图会出现颜色异常,请使用支持的设备播放)

小贴士:【影视自媒体解说文案请移步:夏至文案解说网 www.xiazhi.vip

上一篇:[更 早][其它][剧情][BD-1080P]人啊人[简繁英字幕].Humanity.1999.1080p.BluRay.x265.10bit.DTS- 9.28GB
下一篇:[更 早][欧美][剧情][BD-1080P]花村[简繁英字幕].McCabe.&.Mrs.Miller.1971.CC.1080p.BluRay.x265.10bit.FLAC.1.0-SONYH
回复

使用道具 举报

您需要登录后才可以回帖 登录 | 立即注册

本版积分规则

Archiver|手机版|小众纪录片影视聚合

GMT+8, 2024-7-20 18:08 , Processed in 0.198751 second(s), 12 queries , Gzip On, Redis On.

Powered by 小众纪录片影视聚合 @2010-2023

Copyright © 2010-2024, https://www.xzjlp.com/.


免责说明:本站所有内容链接、图文介绍等均来自于互联网网友分享,本站仅支持web页面展示和文字介绍,绝不提供在线观看和存储服务,也不参与录制、上传、压片。若本站收录内容无意侵犯贵司版权,请发邮件到【a885185#163.com】联系本站,我们将在第一时间删除侵权内容。谢谢!

快速回复 返回顶部 返回列表