小众纪录片影视聚合

 找回密码
 立即注册
查看: 6|回复: 0

[蓝光电影] [2023][大陆][剧情][WEB-4K]潜行[杜比视界版本][国语音轨/中文字幕].I.Did.It.My.Way.2023.2160p.WEB-DL.H265.10bit.DV.DDP5.1.2Au

[复制链接]

116万

主题

116万

帖子

116万

积分

超级版主

Rank: 8Rank: 8

积分
1167997
发表于 2024-7-9 21:21:02 | 显示全部楼层 |阅读模式


[2023][大陆][剧情][WEB-4K]潜行[杜比视界版本][国语音轨/中文字幕].I.Did.It.My.Way.2023.2160p.WEB-DL.H265.10bit.DV.DDP5.1.2Au

完整标题:潜行[杜比视界版本][国语音轨/中文字幕].I.Did.It.My.Way.2023.2160p.WEB-DL.H265.10bit.DV.DDP5.1.2Audio-GPTHD 6.67GB
◎标  题 潜行
◎译  名 将进酒 / I Did It My Way
◎片  名 潛行
◎年  代 2023
◎产  地 中国大陆 / 中国香港
◎类  别 剧情 / 动作 / 犯罪
◎语  言 粤语 / 汉语普通话
◎上映日期 2023-12-29(中国大陆)
◎IMDb链接 https://www.imdb.com/title/tt21330770/
◎豆瓣评分 5.5/10 (54303人评价)
◎豆瓣链接 https://movie.douban.com/subject/35927496/
◎片  长 114分钟
◎导  演 关智耀 Jason Kwan Chi-Yiu
◎编  剧 赵雅菲 Yafei Zhao
       谢清华 Qinghua Xie
◎演  员 刘德华 Andy Lau
       林家栋 Ka Tung Lam
       彭于晏 Eddie Peng
       刘雅瑟 Yase Liu
       任达华 Simon Yam
       林雪 Suet Lam
       郑则仕 Kent Cheng
       姜皓文 Philip Keung Ho-Man
       谈善言 Hedwig Tam
       朱鉴然 Kevin Kam-Yin Chu
       刘俊谦 Terrance Lau
       张慧仪 Angie Cheung
◎简  介
    4吨毒品秘密抵达香港后人间蒸发,幕后黑手竟是看上去人畜无害的律师林阵安(刘德华 饰)。借助暗网直播贩毒,一边杀人一边利用法律脱罪,无恶不作的林阵安不知道自己已悄悄被警察和仇家锁定。最好的兄弟、最爱的妻子先后遭遇变故,穷途末路的他彻底疯狂,想要让全世界付出代价……
点击图片可查看大图
软字幕无法在截图上展现,HDR版本/杜比视界版本截图会出现颜色异常,请使用支持的设备播放!
##### MediaInfo ######
General
Complete name                            : 潜行.I.Did.It.My.Way.2023.2160p.WEB-DL.H265.10bit.DV.DDP5.1.2Audio-GPTHD.mp4
Duration                                 : 1 h 54 min
Overall bit rate mode                    : Variable
Overall bit rate                         : 8 310 kb/s
Video
ID                                       : 1
Format                                   : HEVC
Format/Info                              : High Efficiency Video Coding
Format profile                           : Main 10@L5@Main
HDR format                               : Dolby Vision, Version 1.0, dvhe.05.06, BL+RPU
Codec ID                                 : dvhe
Codec ID/Info                            : High Efficiency Video Coding with Dolby Vision
Duration                                 : 1 h 54 min
Bit rate                                 : 6 542 kb/s
Width                                    : 3 840 pixels
Height                                   : 1 600 pixels
Display aspect ratio                     : 2.40:1
Frame rate mode                          : Constant
Frame rate                               : 24.000 FPS
Color space                              : YUV
Chroma subsampling                       : 4:2:0
Bit depth                                : 10 bits
Bits/(Pixel*Frame)                       : 0.044
Stream size                              : 5.25 GiB (79%)
Writing library                          : Tencent-V265-1.6.9.1-p1k48g8lh40f4ra1.
Default                                  : Yes
Alternate group                          : 1
Encoded date                             : UTC 2024-03-16 03:17:05
Tagged date                              : UTC 2024-03-16 03:17:05
Color range                              : Full
Codec configuration box                  : hvcC+dvcC
Audio #1
ID                                       : 2
Format                                   : E-AC-3
Format/Info                              : Enhanced AC-3
Commercial name                          : Dolby Digital Plus
Codec ID                                 : ec-3
Duration                                 : 1 h 54 min
Bit rate mode                            : Constant
Bit rate                                 : 448 kb/s
Channel(s)                               : 6 channels
Channel layout                           : L R C LFE Ls Rs
Sampling rate                            : 48.0 kHz
Frame rate                               : 31.250 FPS (1536 SPF)
Compression mode                         : Lossy
Stream size                              : 368 MiB (5%)
Language                                 : Chinese
Service kind                             : Complete Main
Default                                  : Yes
Alternate group                          : 2
Encoded date                             : UTC 2024-03-16 03:17:05
Tagged date                              : UTC 2024-03-16 03:17:05
Audio #2
ID                                       : 3
Format                                   : E-AC-3
Format/Info                              : Enhanced AC-3
Commercial name                          : Dolby Digital Plus
Codec ID                                 : ec-3
Duration                                 : 1 h 54 min
Bit rate mode                            : Constant
Bit rate                                 : 448 kb/s
Channel(s)                               : 6 channels
Channel layout                           : L R C LFE Ls Rs
Sampling rate                            : 48.0 kHz
Frame rate                               : 31.250 FPS (1536 SPF)
Compression mode                         : Lossy
Stream size                              : 368 MiB (5%)
Language                                 : Chinese
Service kind                             : Complete Main
Default                                  : No
Alternate group                          : 2
Encoded date                             : UTC 2024-03-16 03:17:05
Tagged date                              : UTC 2024-03-16 03:17:05
Audio #3
ID                                       : 4
Format                                   : E-AC-3
Format/Info                              : Enhanced AC-3
Commercial name                          : Dolby Digital Plus
Codec ID                                 : ec-3
Duration                                 : 1 h 54 min
Bit rate mode                            : Constant
Bit rate                                 : 256 kb/s
Channel(s)                               : 2 channels
Channel layout                           : L R
Sampling rate                            : 48.0 kHz
Frame rate                               : 31.250 FPS (1536 SPF)
Compression mode                         : Lossy
Stream size                              : 210 MiB (3%)
Language                                 : Chinese
Service kind                             : Complete Main
Default                                  : No
Alternate group                          : 2
Encoded date                             : UTC 2024-03-16 03:17:05
Tagged date                              : UTC 2024-03-16 03:17:05
Audio #4
ID                                       : 5
Format                                   : E-AC-3
Format/Info                              : Enhanced AC-3
Commercial name                          : Dolby Digital Plus
Codec ID                                 : ec-3
Duration                                 : 1 h 54 min
Bit rate mode                            : Constant
Bit rate                                 : 256 kb/s
Channel(s)                               : 2 channels
Channel layout                           : L R
Sampling rate                            : 48.0 kHz
Frame rate                               : 31.250 FPS (1536 SPF)
Compression mode                         : Lossy
Stream size                              : 210 MiB (3%)
Language                                 : Chinese
Service kind                             : Complete Main
Default                                  : No
Alternate group                          : 2
Encoded date                             : UTC 2024-03-16 03:17:05
Tagged date                              : UTC 2024-03-16 03:17:05
Audio #5
ID                                       : 6
Format                                   : AAC LC
Format/Info                              : Advanced Audio Codec Low Complexity
Codec ID                                 : mp4a-40-2
Duration                                 : 1 h 54 min
Bit rate mode                            : Variable
Bit rate                                 : 256 kb/s
Maximum bit rate                         : 267 kb/s
Channel(s)                               : 2 channels
Channel layout                           : L R
Sampling rate                            : 44.1 kHz
Frame rate                               : 43.066 FPS (1024 SPF)
Compression mode                         : Lossy
Stream size                              : 210 MiB (3%)
Language                                 : Chinese
Default                                  : No
Alternate group                          : 2
Encoded date                             : UTC 2024-03-16 03:17:05
Tagged date                              : UTC 2024-03-16 03:17:05
Audio #6
ID                                       : 7
Format                                   : AAC LC
Format/Info                              : Advanced Audio Codec Low Complexity
Codec ID                                 : mp4a-40-2
Duration                                 : 1 h 54 min
Bit rate mode                            : Variable
Bit rate                                 : 96.0 kb/s
Maximum bit rate                         : 103 kb/s
Channel(s)                               : 2 channels
Channel layout                           : L R
Sampling rate                            : 44.1 kHz
Frame rate                               : 43.066 FPS (1024 SPF)
Compression mode                         : Lossy
Stream size                              : 78.8 MiB (1%)
Language                                 : Chinese
Default                                  : No
Alternate group                          : 2
Encoded date                             : UTC 2024-03-16 03:17:05
Tagged date                              : UTC 2024-03-16 03:17:05
部分资源为软字幕,移动端推荐播放器:MxPlayer,nPlayer,infuse ,其他播放器请自行尝试。
部分资源为软字幕,电脑端推荐播放器:PotPlayer,完美解码,KMPLAYER,其他播放器请自行尝试。






~~~~~~~~~~~~~~~~~~~~~~~~~~~~~~~~~~~~~~~~~
[2023][大陆][剧情][WEB-4K]潜行[杜比视界版本][国语音轨/中文字幕].I.Did.It.My.Way.2023.2160p.WEB-DL.H265.10bit.DV.DDP5.1.2Au

【文件列表】:


I.Did.It.My.Way.2023.2160p.WEB-DL.H265.10bit.DV.DDP5.1.2Audio-GPTHD.



【下载地址列表】:


游客
文件下载链接就在这里,在您回复评论成功后才能显示。
请勿回复无意义的灌水内容。


下拉页面到最底部回复或者【点击此处快捷回复】,回复后返回此处即可查看下载链接。
如您没注册本站会员,可以点击注册本站,注册后即可回复下载。



软字幕无法在截图上展现,HDR版本/杜比视界版本截图会出现颜色异常,请使用支持的设备播放!






[img][/img]






[img][/img]

(HDR版本/杜比视界版本,截图会出现颜色异常,请使用支持的设备播放)

小贴士:【影视自媒体解说文案请移步:夏至文案解说网 www.xiazhi.vip

上一篇:[2024][大陆][剧情][WEB-4K]新九品芝麻官[高码版][国语配音/中文字幕].The.Judge.2024.2160p.WEB-DL.H265.HQ.AAC- 13.40GB
下一篇:[更 早][欧美][剧情][WEB-1080P]好人寥寥[中文字幕].A.Few.Good.Men.1992.1080p.iTunes.WEB-DL.DD5.1.H264- 10.17GB
回复

使用道具 举报

您需要登录后才可以回帖 登录 | 立即注册

本版积分规则

Archiver|手机版|小众纪录片影视聚合

GMT+8, 2024-7-25 02:33 , Processed in 0.176190 second(s), 12 queries , Gzip On, Redis On.

Powered by 小众纪录片影视聚合 @2010-2023

Copyright © 2010-2024, https://www.xzjlp.com/.


免责说明:本站所有内容链接、图文介绍等均来自于互联网网友分享,本站仅支持web页面展示和文字介绍,绝不提供在线观看和存储服务,也不参与录制、上传、压片。若本站收录内容无意侵犯贵司版权,请发邮件到【a885185#163.com】联系本站,我们将在第一时间删除侵权内容。谢谢!

快速回复 返回顶部 返回列表