小众纪录片影视聚合

 找回密码
 立即注册
查看: 11|回复: 0

[蓝光电影] [更 早][欧美][剧情][WEB-1080P]好人寥寥[中文字幕].A.Few.Good.Men.1992.1080p.iTunes.WEB-DL.DD5.1.H264- 10.17GB

[复制链接]

112万

主题

112万

帖子

112万

积分

超级版主

Rank: 8Rank: 8

积分
1128817
发表于 2024-7-9 21:21:05 | 显示全部楼层 |阅读模式


[更 早][欧美][剧情][WEB-1080P]好人寥寥[中文字幕].A.Few.Good.Men.1992.1080p.iTunes.WEB-DL.DD5.1.H264- 10.17GB

完整标题:好人寥寥[中文字幕].A.Few.Good.Men.1992.1080p.iTunes.WEB-DL.DD5.1.H264-BATWEB 10.17GB
◎标  题 好人寥寥
◎译  名 义海雄风(港) / 军官与魔鬼(台) / 军人机密 / 义海雄心
◎片  名 A Few Good Men
◎年  代 1992
◎产  地 美国
◎类  别 剧情 / 悬疑 / 犯罪
◎语  言 英语 / 法语
◎上映日期 1992-12-11
◎IMDb评分 7.7/10 (272661人评价)
◎IMDb链接 https://www.imdb.com/title/tt0104257/
◎豆瓣评分 8.0/10 (14123人评价)
◎豆瓣链接 https://movie.douban.com/subject/1295260/
◎片  长 138 分钟
◎导  演 罗伯·莱纳 Rob Reiner
◎编  剧 艾伦·索金 Aaron Sorkin
◎演  员 汤姆·克鲁斯 Tom Cruise
       杰克·尼科尔森 Jack Nicholson
       黛米·摩尔 Demi Moore
       凯文·贝肯 Kevin Bacon
       基弗·萨瑟兰 Kiefer Sutherland
       凯文·波拉克 Kevin Pollak
       麦克·狄罗伦佐 Michael DeLorenzo
       约书亚·马林纳 Joshua Malina
       毛德·温切斯特 Maud Winchester
       J·A·普雷斯顿 J.A. Preston
       诺亚·怀尔 Noah Wyle
       约翰·M·杰克逊 John M. Jackson
       小库珀·古丁 Cuba Gooding Jr.
       山德·贝克利 Xander Berkeley
       J·T·沃尔什 J.T. Walsh
       詹姆斯·马歇尔 James Marshall
       沃尔夫冈·巴迪森 Wolfgang Bodison
       布拉德·雅各布维茨 Brad Jacobowitz
◎简  介
    在美国驻古巴关达那摩湾的海军基地,两名海军陆战队员道森和多尼被指控杀害了另一名士兵圣地亚哥。海军律师丹尼尔·卡菲(汤姆·克鲁斯 Tom Cruise 饰)和助手山姆被派接手此桩案件,他们调查到圣地亚哥曾希望调离基地,还举报过道森。卡菲本想进行庭外协调,争取两年刑期。然而 两名士兵坚持自己无罪,他们对圣地亚哥的行为是执行上级给他们下达的“红色条规”。所谓红色条规,就是一种军官默许的由士兵私下进行的训诫条规。                                    卡菲、山姆以及另一名女律师盖洛维(黛米·摩尔 Demi Moore 饰)组成辩方律师进行调查,而基地指挥官杰塞普上校(杰克·尼科尔森 Jack Nicholson 饰)是本案的关键人物,他拒绝了圣地亚哥的调离申请,对他下达了“红色条规”,事后私自篡改了飞行记录。卡菲虽然知道真相,却苦于证据不足,这种情况下若是指证杰塞普上校还会给自己带来麻烦。这场关乎正义的诉讼案,会有一个怎样的结果?
点击图片可查看大图
软字幕无法在截图上展现,HDR版本/杜比视界版本截图会出现颜色异常,请使用支持的设备播放!
##### MediaInfo ######
General
Unique ID                                : 52903299822169117516020684689795503005 (0x27CCCE0FCA5254A7F95D86B8C13CD39D)
Complete name                            : A.Few.Good.Men.1992.1080p.iTunes.WEB-DL.DD5.1.H264-BATWEB.mkv
Duration                                 : 2 h 18 min
Overall bit rate                         : 10.5 Mb/s
Video
ID                                       : 1
Format                                   : AVC
Format/Info                              : Advanced Video Codec
Format profile                           : High@L4
Format settings                          : CABAC / 5 Ref Frames
Format settings, CABAC                   : Yes
Format settings, Reference frames        : 5 frames
Codec ID                                 : V_MPEG4/ISO/AVC
Duration                                 : 2 h 18 min
Bit rate                                 : 10.2 Mb/s
Width                                    : 1 920 pixels
Height                                   : 800 pixels
Display aspect ratio                     : 2.40:1
Frame rate mode                          : Constant
Frame rate                               : 23.976 (24000/1001) FPS
Color space                              : YUV
Chroma subsampling                       : 4:2:0
Bit depth                                : 8 bits
Scan type                                : Progressive
Bits/(Pixel*Frame)                       : 0.276
Stream size                              : 9.79 GiB (96%)
Default                                  : Yes
Forced                                   : No
Color range                              : Limited
Color primaries                          : BT.709
Transfer characteristics                 : BT.709
Matrix coefficients                      : BT.709
Audio
ID                                       : 2
Format                                   : AC-3
Format/Info                              : Audio Coding 3
Commercial name                          : Dolby Digital
Codec ID                                 : A_AC3
Duration                                 : 2 h 18 min
Bit rate mode                            : Constant
Bit rate                                 : 384 kb/s
Channel(s)                               : 6 channels
Channel layout                           : L R C LFE Ls Rs
Sampling rate                            : 48.0 kHz
Frame rate                               : 31.250 FPS (1536 SPF)
Compression mode                         : Lossy
Stream size                              : 379 MiB (4%)
Title                                    : English [Dolby Digital 5.1]
Language                                 : English
Service kind                             : Complete Main
Default                                  : Yes
Forced                                   : No
Text #1
ID                                       : 3
Format                                   : UTF-8
Codec ID                                 : S_TEXT/UTF8
Codec ID/Info                            : UTF-8 Plain Text
Duration                                 : 2 h 13 min
Bit rate                                 : 80 b/s
Frame rate                               : 0.264 FPS
Count of elements                        : 2122
Stream size                              : 79.3 KiB (0%)
Title                                    : 中文 (繁體)
Language                                 : Chinese
Default                                  : Yes
Forced                                   : No
Text #2
ID                                       : 4
Format                                   : UTF-8
Codec ID                                 : S_TEXT/UTF8
Codec ID/Info                            : UTF-8 Plain Text
Duration                                 : 2 h 13 min
Bit rate                                 : 80 b/s
Frame rate                               : 0.264 FPS
Count of elements                        : 2122
Stream size                              : 79.3 KiB (0%)
Title                                    : 中文(简体)
Language                                 : Chinese
Default                                  : No
Forced                                   : No
Text #3
ID                                       : 5
Format                                   : UTF-8
Codec ID                                 : S_TEXT/UTF8
Codec ID/Info                            : UTF-8 Plain Text
Duration                                 : 2 h 13 min
Bit rate                                 : 100 b/s
Frame rate                               : 0.155 FPS
Count of elements                        : 1238
Stream size                              : 98.0 KiB (0%)
Title                                    : ???????
Language                                 : Arabic
Default                                  : No
Forced                                   : No
Text #4
ID                                       : 6
Format                                   : UTF-8
Codec ID                                 : S_TEXT/UTF8
Codec ID/Info                            : UTF-8 Plain Text
Duration                                 : 2 h 13 min
Bit rate                                 : 62 b/s
Frame rate                               : 0.161 FPS
Count of elements                        : 1282
Stream size                              : 60.5 KiB (0%)
Title                                    : ?e?tina
Language                                 : Czech
Default                                  : No
Forced                                   : No
Text #5
ID                                       : 7
Format                                   : UTF-8
Codec ID                                 : S_TEXT/UTF8
Codec ID/Info                            : UTF-8 Plain Text
Duration                                 : 2 h 13 min
Bit rate                                 : 61 b/s
Frame rate                               : 0.160 FPS
Count of elements                        : 1279
Stream size                              : 60.1 KiB (0%)
Title                                    : Dansk (Danmark)
Language                                 : Danish
Default                                  : No
Forced                                   : No
Text #6
ID                                       : 8
Format                                   : UTF-8
Codec ID                                 : S_TEXT/UTF8
Codec ID/Info                            : UTF-8 Plain Text
Duration                                 : 2 h 13 min
Bit rate                                 : 68 b/s
Frame rate                               : 0.165 FPS
Count of elements                        : 1320
Stream size                              : 67.2 KiB (0%)
Title                                    : Deutsch (Deutschland)
Language                                 : German
Default                                  : No
Forced                                   : No
Text #7
ID                                       : 9
Format                                   : UTF-8
Codec ID                                 : S_TEXT/UTF8
Codec ID/Info                            : UTF-8 Plain Text
Duration                                 : 2 h 13 min
Bit rate                                 : 107 b/s
Frame rate                               : 0.155 FPS
Count of elements                        : 1239
Stream size                              : 104 KiB (0%)
Title                                    : Ελληνικ?
Language                                 : Greek
Default                                  : No
Forced                                   : No
Text #8
ID                                       : 10
Format                                   : UTF-8
Codec ID                                 : S_TEXT/UTF8
Codec ID/Info                            : UTF-8 Plain Text
Duration                                 : 2 h 13 min
Bit rate                                 : 64 b/s
Frame rate                               : 0.180 FPS
Count of elements                        : 1439
Stream size                              : 62.6 KiB (0%)
Title                                    : Espa?ol (Espa?a)
Language                                 : Spanish
Default                                  : No
Forced                                   : No
Text #9
ID                                       : 11
Format                                   : UTF-8
Codec ID                                 : S_TEXT/UTF8
Codec ID/Info                            : UTF-8 Plain Text
Duration                                 : 2 h 13 min
Bit rate                                 : 63 b/s
Frame rate                               : 0.161 FPS
Count of elements                        : 1283
Stream size                              : 61.9 KiB (0%)
Title                                    : Suomi (Suomi)
Language                                 : Finnish
Default                                  : No
Forced                                   : No
Text #10
ID                                       : 12
Format                                   : UTF-8
Codec ID                                 : S_TEXT/UTF8
Codec ID/Info                            : UTF-8 Plain Text
Duration                                 : 2 h 13 min
Bit rate                                 : 68 b/s
Frame rate                               : 0.157 FPS
Count of elements                        : 1254
Stream size                              : 66.7 KiB (0%)
Title                                    : Fran?ais (France)
Language                                 : French
Default                                  : No
Forced                                   : No
Text #11
ID                                       : 13
Format                                   : UTF-8
Codec ID                                 : S_TEXT/UTF8
Codec ID/Info                            : UTF-8 Plain Text
Duration                                 : 2 h 13 min
Bit rate                                 : 80 b/s
Frame rate                               : 0.160 FPS
Count of elements                        : 1278
Stream size                              : 78.4 KiB (0%)
Title                                    : ?????
Language                                 : Hebrew
Default                                  : No
Forced                                   : No
Text #12
ID                                       : 14
Format                                   : UTF-8
Codec ID                                 : S_TEXT/UTF8
Codec ID/Info                            : UTF-8 Plain Text
Duration                                 : 2 h 13 min
Bit rate                                 : 61 b/s
Frame rate                               : 0.160 FPS
Count of elements                        : 1278
Stream size                              : 60.4 KiB (0%)
Title                                    : Magyar
Language                                 : Hungarian
Default                                  : No
Forced                                   : No
Text #13
ID                                       : 15
Format                                   : UTF-8
Codec ID                                 : S_TEXT/UTF8
Codec ID/Info                            : UTF-8 Plain Text
Duration                                 : 2 h 13 min
Bit rate                                 : 79 b/s
Frame rate                               : 0.216 FPS
Count of elements                        : 1725
Stream size                              : 77.9 KiB (0%)
Title                                    : Italiano (Italia)
Language                                 : Italian
Default                                  : No
Forced                                   : No
Text #14
ID                                       : 16
Format                                   : UTF-8
Codec ID                                 : S_TEXT/UTF8
Codec ID/Info                            : UTF-8 Plain Text
Duration                                 : 2 h 13 min
Bit rate                                 : 76 b/s
Frame rate                               : 0.207 FPS
Count of elements                        : 1652
Stream size                              : 74.1 KiB (0%)
Title                                    : ??? (????)
Language                                 : Korean
Default                                  : No
Forced                                   : No
Text #15
ID                                       : 17
Format                                   : UTF-8
Codec ID                                 : S_TEXT/UTF8
Codec ID/Info                            : UTF-8 Plain Text
Duration                                 : 2 h 13 min
Bit rate                                 : 62 b/s
Frame rate                               : 0.160 FPS
Count of elements                        : 1281
Stream size                              : 60.8 KiB (0%)
Title                                    : Nederlands
Language                                 : Dutch
Default                                  : No
Forced                                   : No
Text #16
ID                                       : 18
Format                                   : UTF-8
Codec ID                                 : S_TEXT/UTF8
Codec ID/Info                            : UTF-8 Plain Text
Duration                                 : 2 h 13 min
Bit rate                                 : 60 b/s
Frame rate                               : 0.167 FPS
Count of elements                        : 1334
Stream size                              : 58.7 KiB (0%)
Title                                    : Norsk (Norge)
Language                                 : Norwegian
Default                                  : No
Forced                                   : No
Text #17
ID                                       : 19
Format                                   : UTF-8
Codec ID                                 : S_TEXT/UTF8
Codec ID/Info                            : UTF-8 Plain Text
Duration                                 : 2 h 13 min
Bit rate                                 : 57 b/s
Frame rate                               : 0.156 FPS
Count of elements                        : 1244
Stream size                              : 55.9 KiB (0%)
Title                                    : Polski
Language                                 : Polish
Default                                  : No
Forced                                   : No
Text #18
ID                                       : 20
Format                                   : UTF-8
Codec ID                                 : S_TEXT/UTF8
Codec ID/Info                            : UTF-8 Plain Text
Duration                                 : 2 h 13 min
Bit rate                                 : 74 b/s
Frame rate                               : 0.225 FPS
Count of elements                        : 1796
Stream size                              : 72.9 KiB (0%)
Title                                    : Português (Brasil)
Language                                 : Portuguese
Default                                  : No
Forced                                   : No
Text #19
ID                                       : 21
Format                                   : UTF-8
Codec ID                                 : S_TEXT/UTF8
Codec ID/Info                            : UTF-8 Plain Text
Duration                                 : 2 h 13 min
Bit rate                                 : 49 b/s
Frame rate                               : 0.156 FPS
Count of elements                        : 1248
Stream size                              : 48.3 KiB (0%)
Title                                    : Svenska (Sverige)
Language                                 : Swedish
Default                                  : No
Forced                                   : No
Text #20
ID                                       : 22
Format                                   : UTF-8
Codec ID                                 : S_TEXT/UTF8
Codec ID/Info                            : UTF-8 Plain Text
Duration                                 : 2 h 13 min
Bit rate                                 : 143 b/s
Frame rate                               : 0.202 FPS
Count of elements                        : 1612
Stream size                              : 140 KiB (0%)
Title                                    : ??? (???)
Language                                 : Thai
Default                                  : No
Forced                                   : No
Text #21
ID                                       : 23
Format                                   : UTF-8
Codec ID                                 : S_TEXT/UTF8
Codec ID/Info                            : UTF-8 Plain Text
Duration                                 : 2 h 13 min
Bit rate                                 : 61 b/s
Frame rate                               : 0.171 FPS
Count of elements                        : 1364
Stream size                              : 59.8 KiB (0%)
Title                                    : Türk?e
Language                                 : Turkish
Default                                  : No
Forced                                   : No
部分资源为软字幕,移动端推荐播放器:MxPlayer,nPlayer,infuse ,其他播放器请自行尝试。
部分资源为软字幕,电脑端推荐播放器:PotPlayer,完美解码,KMPLAYER,其他播放器请自行尝试。






~~~~~~~~~~~~~~~~~~~~~~~~~~~~~~~~~~~~~~~~~
[更 早][欧美][剧情][WEB-1080P]好人寥寥[中文字幕].A.Few.Good.Men.1992.1080p.iTunes.WEB-DL.DD5.1.H264- 10.17GB

【文件列表】:


A.Few.Good.Men.1992.1080p.iTunes.WEB-DL.DD5.1.H264-BATWEB.



【下载地址列表】:


游客
文件下载链接就在这里,在您回复评论成功后才能显示。
请勿回复无意义的灌水内容。


下拉页面到最底部回复或者【点击此处快捷回复】,回复后返回此处即可查看下载链接。
如您没注册本站会员,可以点击注册本站,注册后即可回复下载。



软字幕无法在截图上展现,HDR版本/杜比视界版本截图会出现颜色异常,请使用支持的设备播放!






[img][/img]






[img][/img]

(HDR版本/杜比视界版本,截图会出现颜色异常,请使用支持的设备播放)

小贴士:【影视自媒体解说文案请移步:夏至文案解说网 www.xiazhi.vip

上一篇:[2023][大陆][剧情][WEB-4K]潜行[杜比视界版本][国语音轨/中文字幕].I.Did.It.My.Way.2023.2160p.WEB-DL.H265.10bit.DV.DDP5.1.2Au
下一篇:[更 早][欧美][剧情][WEB-4K]好人寥寥[HDR/杜比视界双版本][中文字幕].A.Few.Good.Men.1992.2160p.iTunes.WEB-DL.DD5.1.DV.HDR.H.2
回复

使用道具 举报

您需要登录后才可以回帖 登录 | 立即注册

本版积分规则

Archiver|手机版|小众纪录片影视聚合

GMT+8, 2024-7-17 00:40 , Processed in 0.430522 second(s), 12 queries , Gzip On, Redis On.

Powered by 小众纪录片影视聚合 @2010-2023

Copyright © 2010-2024, https://www.xzjlp.com/.


免责说明:本站所有内容链接、图文介绍等均来自于互联网网友分享,本站仅支持web页面展示和文字介绍,绝不提供在线观看和存储服务,也不参与录制、上传、压片。若本站收录内容无意侵犯贵司版权,请发邮件到【a885185#163.com】联系本站,我们将在第一时间删除侵权内容。谢谢!

快速回复 返回顶部 返回列表