小众纪录片影视聚合

 找回密码
 立即注册
查看: 10|回复: 0

[蓝光电影] [2024][大陆][剧情][WEB-4K]大佬攻略[国语配音/中文字幕].To.Be.a.Bigman.2024.2160p.WEB-DL.H265.HDR.AAC- 7.03GB

[复制链接]

116万

主题

116万

帖子

116万

积分

超级版主

Rank: 8Rank: 8

积分
1167997
发表于 2024-7-9 21:22:17 | 显示全部楼层 |阅读模式


[2024][大陆][剧情][WEB-4K]大佬攻略[国语配音/中文字幕].To.Be.a.Bigman.2024.2160p.WEB-DL.H265.HDR.AAC- 7.03GB

完整标题:大佬攻略[国语配音/中文字幕].To.Be.a.Bigman.2024.2160p.WEB-DL.H265.HDR.AAC-BATWEB 7.03GB
◎标  题 大佬攻略
◎年  代 2024
◎产  地 中国大陆
◎类  别 剧情 / 喜剧 / 动作
◎语  言 汉语普通话
◎上映日期 2024-03-15(中国大陆网络)
◎IMDb链接 https://www.imdb.com/title//
◎豆瓣链接 https://movie.douban.com/subject/36788818/
◎片  长 82分钟
◎演  员 刘思维 Siwei Liu
       史元庭 Yuanting Shi
       邢瀚 Han Xing
       任学海 Xuehai Ren
       刘秦杉 Qinshan Liu
       张大宝 Dabao Zhang
       王旭东 Xudong Wang
       赵梓冲 Zichong Zhao
       刘春霞 Chunxia Liu
◎简  介
    暴雨中,胡大胆率队与对手紧张对决,黑衣黑伞,大佬范十足。正当他意气风发,乌龙事件发生……胡大胆再次醒来,发现自己身在一处老街闹市,周围是各式摊主。脑中零星的记忆碎片,让他认定自己就是传说中的“江湖大佬”。因为错位的身份,自带“大佬”光环的胡大胆在老街的生活中笑料百出。上演了一场场啼笑皆非的闹剧。随着记忆渐渐恢复,胡大胆的真实身份也浮出水面……
点击图片可查看大图
软字幕无法在截图上展现,HDR版本/杜比视界版本截图会出现颜色异常,请使用支持的设备播放!
##### MediaInfo ######
General
Unique ID                                : 298804092904407497766690022401717706391 (0xE0CB933365A39590D1DBB781364A1E97)
Complete name                            : To.Be.a.Bigman.2024.2160p.WEB-DL.H265.HDR.AAC-BATWEB.mkv
Duration                                 : 1 h 22 min
Overall bit rate                         : 12.2 Mb/s
Video
ID                                       : 1
Format                                   : HEVC
Format/Info                              : High Efficiency Video Coding
Format profile                           : Main 10@L5@Main
HDR format                               : SMPTE ST 2086, HDR10 compatible
Codec ID                                 : V_MPEGH/ISO/HEVC
Duration                                 : 1 h 22 min
Bit rate                                 : 12.0 Mb/s
Width                                    : 3 840 pixels
Height                                   : 1 608 pixels
Display aspect ratio                     : 2.40:1
Frame rate mode                          : Constant
Frame rate                               : 25.000 FPS
Color space                              : YUV
Chroma subsampling                       : 4:2:0
Bit depth                                : 10 bits
Bits/(Pixel*Frame)                       : 0.078
Stream size                              : 6.92 GiB (98%)
Language                                 : Chinese
Default                                  : Yes
Forced                                   : No
Color range                              : Limited
Color primaries                          : BT.2020
Transfer characteristics                 : PQ
Matrix coefficients                      : BT.2020 non-constant
Mastering display color primaries        : R: x=0.708000 y=0.292000, G: x=0.170000 y=0.797000, B: x=0.130000 y=0.046000, White point: x=0.312700 y=0.329000
Mastering display luminance              : min: 0.0001 cd/m2, max: 1000 cd/m2
Maximum Content Light Level              : 814 cd/m2
Maximum Frame-Average Light Level        : 6 cd/m2
Audio
ID                                       : 2
Format                                   : AAC LC
Format/Info                              : Advanced Audio Codec Low Complexity
Codec ID                                 : A_AAC-2
Duration                                 : 1 h 22 min
Bit rate                                 : 192 kb/s
Channel(s)                               : 2 channels
Channel layout                           : L R
Sampling rate                            : 44.1 kHz
Frame rate                               : 43.066 FPS (1024 SPF)
Compression mode                         : Lossy
Stream size                              : 112 MiB (2%)
Default                                  : No
Forced                                   : No
部分资源为软字幕,移动端推荐播放器:MxPlayer,nPlayer,infuse ,其他播放器请自行尝试。
部分资源为软字幕,电脑端推荐播放器:PotPlayer,完美解码,KMPLAYER,其他播放器请自行尝试。






~~~~~~~~~~~~~~~~~~~~~~~~~~~~~~~~~~~~~~~~~
[2024][大陆][剧情][WEB-4K]大佬攻略[国语配音/中文字幕].To.Be.a.Bigman.2024.2160p.WEB-DL.H265.HDR.AAC- 7.03GB

【文件列表】:


To.Be.a.Bigman.2024.2160p.WEB-DL.H265.HDR.AAC-BATWEB.



【下载地址列表】:


游客
文件下载链接就在这里,在您回复评论成功后才能显示。
请勿回复无意义的灌水内容。


下拉页面到最底部回复或者【点击此处快捷回复】,回复后返回此处即可查看下载链接。
如您没注册本站会员,可以点击注册本站,注册后即可回复下载。



软字幕无法在截图上展现,HDR版本/杜比视界版本截图会出现颜色异常,请使用支持的设备播放!






[img][/img]






[img][/img]

(HDR版本/杜比视界版本,截图会出现颜色异常,请使用支持的设备播放)

小贴士:【影视自媒体解说文案请移步:夏至文案解说网 www.xiazhi.vip

上一篇:[2024][大陆][剧情][WEB-4K]大佬攻略[国语配音/中文字幕].To.Be.a.Bigman.2024.2160p.WEB-DL.H265.EDR.AAC- 8.92GB
下一篇:[更 早][香港][动作][WEB-4K]少林英雄榜[高码版][国语配音/中文字幕].A.Slice.of.Death.1979.2160p.WEB-DL.H265.HQ.AAC- 11.1
回复

使用道具 举报

您需要登录后才可以回帖 登录 | 立即注册

本版积分规则

Archiver|手机版|小众纪录片影视聚合

GMT+8, 2024-7-24 22:55 , Processed in 0.175627 second(s), 12 queries , Gzip On, Redis On.

Powered by 小众纪录片影视聚合 @2010-2023

Copyright © 2010-2024, https://www.xzjlp.com/.


免责说明:本站所有内容链接、图文介绍等均来自于互联网网友分享,本站仅支持web页面展示和文字介绍,绝不提供在线观看和存储服务,也不参与录制、上传、压片。若本站收录内容无意侵犯贵司版权,请发邮件到【a885185#163.com】联系本站,我们将在第一时间删除侵权内容。谢谢!

快速回复 返回顶部 返回列表