小众纪录片影视聚合

 找回密码
 立即注册
查看: 11|回复: 0

[蓝光电影] [更 早][香港][动作][WEB-4K]少林英雄榜[高码版][国语配音/中文字幕].A.Slice.of.Death.1979.2160p.WEB-DL.H265.HQ.AAC- 11.1

[复制链接]

116万

主题

116万

帖子

116万

积分

超级版主

Rank: 8Rank: 8

积分
1167997
发表于 2024-7-9 21:22:20 | 显示全部楼层 |阅读模式


[更 早][香港][动作][WEB-4K]少林英雄榜[高码版][国语配音/中文字幕].A.Slice.of.Death.1979.2160p.WEB-DL.H265.HQ.AAC- 11.1

完整标题:少林英雄榜[高码版][国语配音/中文字幕].A.Slice.of.Death.1979.2160p.WEB-DL.H265.HQ.AAC-BATWEB 11.18GB
◎标  题 少林英雄榜
◎译  名 Abbot of Shaolin / Shaolin Abbot
◎年  代 1979
◎产  地 中国香港
◎类  别 动作 / 冒险
◎语  言 粤语
◎上映日期 1979-07-11
◎IMDb评分 6.5/10 (305人评价)
◎IMDb链接 https://www.imdb.com/title/tt0079892/
◎豆瓣评分 6.4/10 (741人评价)
◎豆瓣链接 https://movie.douban.com/subject/2072112/
◎片  长 Hong Kong: 84 分钟
◎导  演 何梦华 Meng Hua Ho
◎演  员 姜大卫 David Chiang
       徐少强 Norman Chu
       罗烈 Lieh Lo
       谈瑛 Ying Tan
       西瓜刨 Gwa-pau Sai
       金天柱 Tien-Chu Chin
       刘准 Cheun Lau
       姜南 Nan Chiang
       冯敬文 Ging Man Fung
       潘冰嫦 Bin Seung Poon
       顾冠忠 Kuan-chung Ku
       李丽丽 Lily Li
       陆剑明 Jamie Luk
◎简  介
    少林寺众僧立志反清复明,至善禅师(姜大卫)前往峨嵋山取得炼钢之法和铸造各种兵器、暗器的图样之后,匆匆赶回少林,却遇上清兵火烧少林寺,寺中众僧大部份血战而死。至善前往南方,肩负起重建少林寺的重任,一面化缘募捐,一面结识江湖豪杰,并收录李锦纶(徐少强)、童千斤(吴杭生)等热血青年为弟子……
点击图片可查看大图
软字幕无法在截图上展现,HDR版本/杜比视界版本截图会出现颜色异常,请使用支持的设备播放!
##### MediaInfo ######
General
Complete name                            : A.Slice.of.Death.1979.2160p.WEB-DL.H265.HQ.AAC-BATWEB.mp4
Duration                                 : 1 h 19 min
Overall bit rate mode                    : Variable
Overall bit rate                         : 20.1 Mb/s
Video
ID                                       : 1
Format                                   : HEVC
Format/Info                              : High Efficiency Video Coding
Format profile                           : Main [email protected]@Main
Codec ID                                 : hev1
Codec ID/Info                            : High Efficiency Video Coding
Duration                                 : 1 h 19 min
Bit rate                                 : 19.9 Mb/s
Width                                    : 3 840 pixels
Height                                   : 1 624 pixels
Display aspect ratio                     : 2.35:1
Frame rate mode                          : Constant
Frame rate                               : 25.000 FPS
Color space                              : YUV
Chroma subsampling                       : 4:2:0
Bit depth                                : 10 bits
Bits/(Pixel*Frame)                       : 0.128
Stream size                              : 11.0 GiB (99%)
Color range                              : Limited
Color primaries                          : BT.709
Transfer characteristics                 : BT.709
Matrix coefficients                      : BT.709
Codec configuration box                  : hvcC
Audio
ID                                       : 2
Format                                   : AAC LC
Format/Info                              : Advanced Audio Codec Low Complexity
Codec ID                                 : mp4a-40-2
Duration                                 : 1 h 19 min
Bit rate mode                            : Variable
Bit rate                                 : 258 kb/s
Channel(s)                               : 2 channels
Channel layout                           : L R
Sampling rate                            : 44.1 kHz
Frame rate                               : 43.066 FPS (1024 SPF)
Compression mode                         : Lossy
Stream size                              : 145 MiB (1%)
Default                                  : Yes
Alternate group                          : 1
部分资源为软字幕,移动端推荐播放器:MxPlayer,nPlayer,infuse ,其他播放器请自行尝试。
部分资源为软字幕,电脑端推荐播放器:PotPlayer,完美解码,KMPLAYER,其他播放器请自行尝试。






~~~~~~~~~~~~~~~~~~~~~~~~~~~~~~~~~~~~~~~~~
[更 早][香港][动作][WEB-4K]少林英雄榜[高码版][国语配音/中文字幕].A.Slice.of.Death.1979.2160p.WEB-DL.H265.HQ.AAC- 11.1

【文件列表】:


A.Slice.of.Death.1979.2160p.WEB-DL.H265.HQ.AAC-BATWEB.



【下载地址列表】:


游客
文件下载链接就在这里,在您回复评论成功后才能显示。
请勿回复无意义的灌水内容。


下拉页面到最底部回复或者【点击此处快捷回复】,回复后返回此处即可查看下载链接。
如您没注册本站会员,可以点击注册本站,注册后即可回复下载。



软字幕无法在截图上展现,HDR版本/杜比视界版本截图会出现颜色异常,请使用支持的设备播放!






[img][/img]






[img][/img]

(HDR版本/杜比视界版本,截图会出现颜色异常,请使用支持的设备播放)

小贴士:【影视自媒体解说文案请移步:夏至文案解说网 www.xiazhi.vip

上一篇:[2024][大陆][剧情][WEB-4K]大佬攻略[国语配音/中文字幕].To.Be.a.Bigman.2024.2160p.WEB-DL.H265.HDR.AAC- 7.03GB
下一篇:[2024][大陆][喜剧][WEB-4K]废品飞车[60帧率版本][国语配音/中文字幕].Flying.Scrap.Car.2024.2160p.WEB-DL.H265.60fps.DDP2.0-BAT
回复

使用道具 举报

您需要登录后才可以回帖 登录 | 立即注册

本版积分规则

Archiver|手机版|小众纪录片影视聚合

GMT+8, 2024-7-25 03:07 , Processed in 0.118117 second(s), 12 queries , Gzip On, Redis On.

Powered by 小众纪录片影视聚合 @2010-2023

Copyright © 2010-2024, https://www.xzjlp.com/.


免责说明:本站所有内容链接、图文介绍等均来自于互联网网友分享,本站仅支持web页面展示和文字介绍,绝不提供在线观看和存储服务,也不参与录制、上传、压片。若本站收录内容无意侵犯贵司版权,请发邮件到【a885185#163.com】联系本站,我们将在第一时间删除侵权内容。谢谢!

快速回复 返回顶部 返回列表