小众纪录片影视聚合

 找回密码
 立即注册
查看: 9|回复: 0

[蓝光电影] [2015][欧美][剧情][WEB-1080P]大空头[中文字幕].The.Big.Short.2015.1080p.iTunes.WEB-DL.DD5.1.H264- 9.79GB

[复制链接]

112万

主题

112万

帖子

112万

积分

超级版主

Rank: 8Rank: 8

积分
1128817
发表于 7 天前 | 显示全部楼层 |阅读模式


[2015][欧美][剧情][WEB-1080P]大空头[中文字幕].The.Big.Short.2015.1080p.iTunes.WEB-DL.DD5.1.H264- 9.79GB

完整标题:大空头[中文字幕].The.Big.Short.2015.1080p.iTunes.WEB-DL.DD5.1.H264-BATWEB 9.79GB
◎标  题 大空头
◎译  名 大卖空(台) / 沽注一掷(港) / The Big Short: Inside the Doomsday Machine
◎片  名 The Big Short
◎年  代 2015
◎产  地 美国
◎类  别 剧情 / 传记
◎语  言 英语
◎上映日期 2015-11-12(AFI影展) / 2015-12-11(美国点映) / 2015-12-23(美国)
◎IMDb评分 7.8/10 (471316人评价)
◎IMDb链接 https://www.imdb.com/title/tt1596363/
◎豆瓣评分 8.5/10 (236035人评价)
◎豆瓣链接 https://movie.douban.com/subject/26303622/
◎片  长 130分钟
◎导  演 亚当·麦凯 Adam McKay
◎编  剧 查尔斯·伦道夫 Charles Randolph
       亚当·麦凯 Adam McKay
       迈克尔·刘易斯 Michael Lewis
◎演  员 克里斯蒂安·贝尔 Christian Bale
       史蒂夫·卡瑞尔 Steve Carell
       瑞恩·高斯林 Ryan Gosling
       布拉德·皮特 Brad Pitt
       梅丽莎·里奥 Melissa Leo
       约翰·马加罗 John Magaro
       拉菲·斯波 Rafe Spall
       杰瑞米·斯特朗 Jeremy Strong
       芬·维特洛克 Finn Wittrock
       玛丽莎·托梅 Marisa Tomei
       崔西·莱茨 Tracy Letts
       文峰 Byron Mann
       阿德普波·奥杜耶 Adepero Oduye
       凯伦·吉兰 Karen Gillan
       马克思·格林菲尔德 Max Greenfield
       比利·马格努森 Billy Magnussen
       玛格特·罗比 Margot Robbie
       理查德·塞勒 Richard Thaler
       赛琳娜·戈麦斯 Selena Gomez
       哈米什·林克莱特 Hamish Linklater
       阿尔·萨皮恩扎 Al Sapienza
       拉腊·格赖斯 Lara Grice
       韦恩·佩雷 Wayne Pére
       亨特·巴克 Hunter Burke
       比利·斯洛特 Billy Slaughter
       斯坦利·黄 Stanley Wong
       布兰登·斯特西 Brandon Stacy
       贾可琳·贝瑟尼 Jaclyn Bethany
       艾登·佛洛维斯 Aiden Flowers
       戴夫·戴维斯 Dave Davis
       朴在书 Jae Suh Park
       莱斯利·卡斯泰 Leslie Castay
       杰弗瑞·格里芬 Jeffry Griffin
       Tyler Kunkle Tyler Kunkle
       伊兰·史鲁洛维茨 Ilan Srulovicz
       朱莉娅·霍特 Julia Holt
       妮可·巴雷 Nicole Barré
       大卫·卡拉维 David Kallaway
       杰克·蒂格 Jack Teague
       乔伊·布鲁克斯 Joey Brooks
       兰达 Landa
◎简  介
    2008年全球金融危机,华尔街几位眼光独到的投资鬼才在2007年美国信贷风暴前就看穿了泡沫假象,通过做空次贷CDS而大幅获益,成为少数在金融灾难中大量获利的投资枭雄。贾瑞德·韦内特(瑞恩·高斯林饰)将一个能把40亿美元单子做成37亿美元收入的德银代理人,迈克尔·布瑞(克里斯蒂安·贝尔饰)是独眼基金管理人,马克·鲍姆(史蒂夫·卡瑞尔饰)是华尔街世家出身,本·霍克特(布拉德·皮特饰)是康沃尔资本退休银行家。
点击图片可查看大图
软字幕无法在截图上展现,HDR版本/杜比视界版本截图会出现颜色异常,请使用支持的设备播放!
##### MediaInfo ######
General
Unique ID                                : 27114662113928922320491846307067545881 (0x1466180E66381925D236A400D2194919)
Complete name                            : The.Big.Short.2015.1080p.iTunes.WEB-DL.DD5.1.H264-BATWEB.mkv
Duration                                 : 2 h 10 min
Overall bit rate                         : 10.8 Mb/s
Video
ID                                       : 1
Format                                   : AVC
Format/Info                              : Advanced Video Codec
Format profile                           : High@L4
Format settings                          : CABAC / 5 Ref Frames
Format settings, CABAC                   : Yes
Format settings, Reference frames        : 5 frames
Codec ID                                 : V_MPEG4/ISO/AVC
Duration                                 : 2 h 10 min
Bit rate                                 : 10.4 Mb/s
Width                                    : 1 916 pixels
Height                                   : 796 pixels
Display aspect ratio                     : 2.40:1
Frame rate mode                          : Constant
Frame rate                               : 23.976 (23976/1000) FPS
Color space                              : YUV
Chroma subsampling                       : 4:2:0
Bit depth                                : 8 bits
Scan type                                : Progressive
Bits/(Pixel*Frame)                       : 0.284
Stream size                              : 9.44 GiB (96%)
Default                                  : Yes
Forced                                   : No
Color range                              : Limited
Color primaries                          : BT.709
Transfer characteristics                 : BT.709
Matrix coefficients                      : BT.709
Audio
ID                                       : 2
Format                                   : AC-3
Format/Info                              : Audio Coding 3
Commercial name                          : Dolby Digital
Codec ID                                 : A_AC3
Duration                                 : 2 h 10 min
Bit rate mode                            : Constant
Bit rate                                 : 384 kb/s
Channel(s)                               : 6 channels
Channel layout                           : L R C LFE Ls Rs
Sampling rate                            : 48.0 kHz
Frame rate                               : 31.250 FPS (1536 SPF)
Compression mode                         : Lossy
Stream size                              : 358 MiB (4%)
Title                                    : English (United States) [Dolby Digital 5.1]
Language                                 : English
Service kind                             : Complete Main
Default                                  : Yes
Forced                                   : No
Text #1
ID                                       : 3
Format                                   : UTF-8
Codec ID                                 : S_TEXT/UTF8
Codec ID/Info                            : UTF-8 Plain Text
Duration                                 : 2 h 2 min
Bit rate                                 : 68 b/s
Frame rate                               : 0.276 FPS
Count of elements                        : 2034
Stream size                              : 61.4 KiB (0%)
Title                                    : 中文(简体)
Language                                 : Chinese
Default                                  : Yes
Forced                                   : No
Text #2
ID                                       : 4
Format                                   : UTF-8
Codec ID                                 : S_TEXT/UTF8
Codec ID/Info                            : UTF-8 Plain Text
Duration                                 : 2 h 2 min
Bit rate                                 : 64 b/s
Frame rate                               : 0.276 FPS
Count of elements                        : 2037
Stream size                              : 58.0 KiB (0%)
Title                                    : 中文 (繁體)
Language                                 : Chinese
Default                                  : No
Forced                                   : No
Text #3
ID                                       : 5
Format                                   : UTF-8
Codec ID                                 : S_TEXT/UTF8
Codec ID/Info                            : UTF-8 Plain Text
Duration                                 : 2 h 3 min
Bit rate                                 : 57 b/s
Frame rate                               : 0.269 FPS
Count of elements                        : 1984
Stream size                              : 51.4 KiB (0%)
Title                                    : 粵語 (繁體)
Language                                 : Chinese
Default                                  : No
Forced                                   : No
Text #4
ID                                       : 6
Format                                   : UTF-8
Codec ID                                 : S_TEXT/UTF8
Codec ID/Info                            : UTF-8 Plain Text
Duration                                 : 2 h 3 min
Bit rate                                 : 86 b/s
Frame rate                               : 0.267 FPS
Count of elements                        : 1971
Stream size                              : 77.6 KiB (0%)
Title                                    : ?e?tina (?esko)
Language                                 : Czech
Default                                  : No
Forced                                   : No
Text #5
ID                                       : 7
Format                                   : UTF-8
Codec ID                                 : S_TEXT/UTF8
Codec ID/Info                            : UTF-8 Plain Text
Duration                                 : 2 h 2 min
Bit rate                                 : 79 b/s
Frame rate                               : 0.217 FPS
Count of elements                        : 1603
Stream size                              : 71.2 KiB (0%)
Title                                    : Dansk (Danmark)
Language                                 : Danish
Default                                  : No
Forced                                   : No
Text #6
ID                                       : 8
Format                                   : UTF-8
Codec ID                                 : S_TEXT/UTF8
Codec ID/Info                            : UTF-8 Plain Text
Duration                                 : 2 h 3 min
Bit rate                                 : 149 b/s
Frame rate                               : 0.268 FPS
Count of elements                        : 1981
Stream size                              : 135 KiB (0%)
Title                                    : Ελληνικ? (Ελλ?δα)
Language                                 : Greek
Default                                  : No
Forced                                   : No
Text #7
ID                                       : 9
Format                                   : UTF-8
Codec ID                                 : S_TEXT/UTF8
Codec ID/Info                            : UTF-8 Plain Text
Duration                                 : 2 h 3 min
Bit rate                                 : 91 b/s
Frame rate                               : 0.283 FPS
Count of elements                        : 2089
Stream size                              : 82.2 KiB (0%)
Title                                    : Espa?ol (Espa?a)
Language                                 : Spanish
Default                                  : No
Forced                                   : No
Text #8
ID                                       : 10
Format                                   : UTF-8
Codec ID                                 : S_TEXT/UTF8
Codec ID/Info                            : UTF-8 Plain Text
Duration                                 : 2 h 2 min
Bit rate                                 : 91 b/s
Frame rate                               : 0.329 FPS
Count of elements                        : 2425
Stream size                              : 82.2 KiB (0%)
Title                                    : Eesti (Eesti)
Language                                 : Estonian
Default                                  : No
Forced                                   : No
Text #9
ID                                       : 11
Format                                   : UTF-8
Codec ID                                 : S_TEXT/UTF8
Codec ID/Info                            : UTF-8 Plain Text
Duration                                 : 2 h 2 min
Bit rate                                 : 89 b/s
Frame rate                               : 0.327 FPS
Count of elements                        : 2413
Stream size                              : 81.0 KiB (0%)
Title                                    : Suomi (Suomi)
Language                                 : Finnish
Default                                  : No
Forced                                   : No
Text #10
ID                                       : 12
Format                                   : UTF-8
Codec ID                                 : S_TEXT/UTF8
Codec ID/Info                            : UTF-8 Plain Text
Duration                                 : 2 h 3 min
Bit rate                                 : 76 b/s
Frame rate                               : 0.293 FPS
Count of elements                        : 2162
Stream size                              : 68.7 KiB (0%)
Title                                    : Fran?ais (France)
Language                                 : French
Default                                  : No
Forced                                   : No
Text #11
ID                                       : 13
Format                                   : UTF-8
Codec ID                                 : S_TEXT/UTF8
Codec ID/Info                            : UTF-8 Plain Text
Duration                                 : 2 h 3 min
Bit rate                                 : 144 b/s
Frame rate                               : 0.270 FPS
Count of elements                        : 1992
Stream size                              : 130 KiB (0%)
Title                                    : ????? (?????)
Language                                 : Hebrew
Default                                  : No
Forced                                   : No
Text #12
ID                                       : 14
Format                                   : UTF-8
Codec ID                                 : S_TEXT/UTF8
Codec ID/Info                            : UTF-8 Plain Text
Duration                                 : 2 h 2 min
Bit rate                                 : 223 b/s
Frame rate                               : 0.331 FPS
Count of elements                        : 2445
Stream size                              : 201 KiB (0%)
Title                                    : ?????? (????)
Language                                 : Hindi
Default                                  : No
Forced                                   : No
Text #13
ID                                       : 15
Format                                   : UTF-8
Codec ID                                 : S_TEXT/UTF8
Codec ID/Info                            : UTF-8 Plain Text
Duration                                 : 2 h 2 min
Bit rate                                 : 95 b/s
Frame rate                               : 0.329 FPS
Count of elements                        : 2426
Stream size                              : 86.2 KiB (0%)
Title                                    : Magyar (Magyarország)
Language                                 : Hungarian
Default                                  : No
Forced                                   : No
Text #14
ID                                       : 16
Format                                   : UTF-8
Codec ID                                 : S_TEXT/UTF8
Codec ID/Info                            : UTF-8 Plain Text
Duration                                 : 2 h 3 min
Bit rate                                 : 85 b/s
Frame rate                               : 0.270 FPS
Count of elements                        : 1993
Stream size                              : 77.2 KiB (0%)
Title                                    : ???
Language                                 : Korean
Default                                  : No
Forced                                   : No
Text #15
ID                                       : 17
Format                                   : UTF-8
Codec ID                                 : S_TEXT/UTF8
Codec ID/Info                            : UTF-8 Plain Text
Duration                                 : 2 h 3 min
Bit rate                                 : 84 b/s
Frame rate                               : 0.266 FPS
Count of elements                        : 1965
Stream size                              : 75.9 KiB (0%)
Title                                    : Lietuvi? (Lietuva)
Language                                 : Lithuanian
Default                                  : No
Forced                                   : No
Text #16
ID                                       : 18
Format                                   : UTF-8
Codec ID                                 : S_TEXT/UTF8
Codec ID/Info                            : UTF-8 Plain Text
Duration                                 : 2 h 2 min
Bit rate                                 : 83 b/s
Frame rate                               : 0.330 FPS
Count of elements                        : 2437
Stream size                              : 75.6 KiB (0%)
Title                                    : Latvie?u (Latvija)
Language                                 : Latvian
Default                                  : No
Forced                                   : No
Text #17
ID                                       : 19
Format                                   : UTF-8
Codec ID                                 : S_TEXT/UTF8
Codec ID/Info                            : UTF-8 Plain Text
Duration                                 : 2 h 2 min
Bit rate                                 : 78 b/s
Frame rate                               : 0.266 FPS
Count of elements                        : 1962
Stream size                              : 70.7 KiB (0%)
Title                                    : Norsk (Norge)
Language                                 : Norwegian
Default                                  : No
Forced                                   : No
Text #18
ID                                       : 20
Format                                   : UTF-8
Codec ID                                 : S_TEXT/UTF8
Codec ID/Info                            : UTF-8 Plain Text
Duration                                 : 2 h 3 min
Bit rate                                 : 77 b/s
Frame rate                               : 0.266 FPS
Count of elements                        : 1962
Stream size                              : 69.4 KiB (0%)
Title                                    : Polski (Polska)
Language                                 : Polish
Default                                  : No
Forced                                   : No
Text #19
ID                                       : 21
Format                                   : UTF-8
Codec ID                                 : S_TEXT/UTF8
Codec ID/Info                            : UTF-8 Plain Text
Duration                                 : 2 h 3 min
Bit rate                                 : 90 b/s
Frame rate                               : 0.275 FPS
Count of elements                        : 2030
Stream size                              : 81.3 KiB (0%)
Title                                    : Português (Portugal)
Language                                 : Portuguese
Default                                  : No
Forced                                   : No
Text #20
ID                                       : 22
Format                                   : UTF-8
Codec ID                                 : S_TEXT/UTF8
Codec ID/Info                            : UTF-8 Plain Text
Duration                                 : 2 h 3 min
Bit rate                                 : 137 b/s
Frame rate                               : 0.271 FPS
Count of elements                        : 2000
Stream size                              : 124 KiB (0%)
Title                                    : Русский (Россия)
Language                                 : Russian
Default                                  : No
Forced                                   : No
Text #21
ID                                       : 23
Format                                   : UTF-8
Codec ID                                 : S_TEXT/UTF8
Codec ID/Info                            : UTF-8 Plain Text
Duration                                 : 2 h 2 min
Bit rate                                 : 85 b/s
Frame rate                               : 0.265 FPS
Count of elements                        : 1954
Stream size                              : 76.9 KiB (0%)
Title                                    : Svenska (Sverige)
Language                                 : Swedish
Default                                  : No
Forced                                   : No
Text #22
ID                                       : 24
Format                                   : UTF-8
Codec ID                                 : S_TEXT/UTF8
Codec ID/Info                            : UTF-8 Plain Text
Duration                                 : 2 h 3 min
Bit rate                                 : 161 b/s
Frame rate                               : 0.269 FPS
Count of elements                        : 1987
Stream size                              : 146 KiB (0%)
Title                                    : ??? (???)
Language                                 : Thai
Default                                  : No
Forced                                   : No
Text #23
ID                                       : 25
Format                                   : UTF-8
Codec ID                                 : S_TEXT/UTF8
Codec ID/Info                            : UTF-8 Plain Text
Duration                                 : 2 h 3 min
Bit rate                                 : 91 b/s
Frame rate                               : 0.267 FPS
Count of elements                        : 1972
Stream size                              : 82.5 KiB (0%)
Title                                    : Türk?e (Türkiye)
Language                                 : Turkish
Default                                  : No
Forced                                   : No
部分资源为软字幕,移动端推荐播放器:MxPlayer,nPlayer,infuse ,其他播放器请自行尝试。
部分资源为软字幕,电脑端推荐播放器:PotPlayer,完美解码,KMPLAYER,其他播放器请自行尝试。






~~~~~~~~~~~~~~~~~~~~~~~~~~~~~~~~~~~~~~~~~
[2015][欧美][剧情][WEB-1080P]大空头[中文字幕].The.Big.Short.2015.1080p.iTunes.WEB-DL.DD5.1.H264- 9.79GB

【文件列表】:


The.Big.Short.2015.1080p.iTunes.WEB-DL.DD5.1.H264-BATWEB.



【下载地址列表】:


游客
文件下载链接就在这里,在您回复评论成功后才能显示。
请勿回复无意义的灌水内容。


下拉页面到最底部回复或者【点击此处快捷回复】,回复后返回此处即可查看下载链接。
如您没注册本站会员,可以点击注册本站,注册后即可回复下载。



软字幕无法在截图上展现,HDR版本/杜比视界版本截图会出现颜色异常,请使用支持的设备播放!






[img][/img]






[img][/img]

(HDR版本/杜比视界版本,截图会出现颜色异常,请使用支持的设备播放)

小贴士:【影视自媒体解说文案请移步:夏至文案解说网 www.xiazhi.vip

上一篇:[2015][欧美][剧情][WEB-1080P]聚焦[中文字幕].Spotlight.2016.1080p.iTunes.WEB-DL.DD5.1.H264- 9.35GB
下一篇:[2019][其它][战争][WEB-1080P]喀秋莎行动[国语配音/中文字幕].Secret.Weapon.2019.1080p.WEB-DL.H265.AAC.2Audio- 2.06GB
回复

使用道具 举报

您需要登录后才可以回帖 登录 | 立即注册

本版积分规则

Archiver|手机版|小众纪录片影视聚合

GMT+8, 2024-7-16 23:39 , Processed in 0.071121 second(s), 13 queries , Gzip On, Redis On.

Powered by 小众纪录片影视聚合 @2010-2023

Copyright © 2010-2024, https://www.xzjlp.com/.


免责说明:本站所有内容链接、图文介绍等均来自于互联网网友分享,本站仅支持web页面展示和文字介绍,绝不提供在线观看和存储服务,也不参与录制、上传、压片。若本站收录内容无意侵犯贵司版权,请发邮件到【a885185#163.com】联系本站,我们将在第一时间删除侵权内容。谢谢!

快速回复 返回顶部 返回列表