小众纪录片影视聚合

 找回密码
 立即注册
查看: 5|回复: 0

[蓝光电影] [2019][其它][战争][WEB-1080P]喀秋莎行动[国语配音/中文字幕].Secret.Weapon.2019.1080p.WEB-DL.H265.AAC.2Audio- 2.06GB

[复制链接]

116万

主题

116万

帖子

116万

积分

超级版主

Rank: 8Rank: 8

积分
1167997
发表于 2024-7-9 21:23:09 | 显示全部楼层 |阅读模式


[2019][其它][战争][WEB-1080P]喀秋莎行动[国语配音/中文字幕].Secret.Weapon.2019.1080p.WEB-DL.H265.AAC.2Audio- 2.06GB

完整标题:喀秋莎行动[国语配音/中文字幕].Secret.Weapon.2019.1080p.WEB-DL.H265.AAC.2Audio-DreamHD 2.06GB
◎标  题 喀秋莎行动
◎译  名 命令“摧毁” / 秘密武器 / Sekretnoe oruzhie / Secret Weapon
◎片  名 Секретное оружие
◎年  代 2019
◎产  地 俄罗斯
◎类  别 战争
◎语  言 俄语
◎上映日期 2019-05-09(俄罗斯)
◎IMDb评分 4.1/10 (227人评价)
◎IMDb链接 https://www.imdb.com/title/tt10985590/
◎豆瓣评分 5.6/10 (298人评价)
◎豆瓣链接 https://movie.douban.com/subject/34919075/
◎片  长 97分钟
◎导  演 康斯坦丁·斯达茨基 Konstantin Statskiy
◎编  剧 康斯坦丁·斯达茨基 Konstantin Statskiy
◎演  员 亚历山大·奥斯特犹科夫 Aleksandr Ustyugov
       维罗妮卡·普拉什凯维奇 Veronika Plyashkevich
       蒂莫菲·特里布纳采夫 Timofey Tribuntsev
       叶夫根尼· 安德罗波夫 Yevgeni Antropov
       阿扎马特·尼格马诺夫 Azamat Nigmanov
       Anatoli Gushchin Anatoli Gushchin
       Galina Kukhalskaya Galina Kukhalskaya
       纳德兹达·安齐波维奇 Nadezhda Antzipovich
◎简  介
    本片翻拍自1978版本《特殊使命小分队》。卫国战争期间,为防止代号为“喀秋莎”的速射炮落入敌人之手,一支由亚历山大·叶尔马科夫指挥的小分队紧急组建并投入前线,他们的目标是发现并摧毁"喀秋莎"。
点击图片可查看大图
软字幕无法在截图上展现,HDR版本/杜比视界版本截图会出现颜色异常,请使用支持的设备播放!
##### MediaInfo ######
General
Unique ID                                : 105950467202676337343697750262646030143 (0x4FB55157751D4802A7B5DEE50E8FBF3F)
Complete name                            : Secret.Weapon.2019.1080p.WEB-DL.H265.AAC.2Audio-DreamHD.mkv
Duration                                 : 1 h 34 min
Overall bit rate                         : 3 124 kb/s
Video
ID                                       : 1
Format                                   : HEVC
Format/Info                              : High Efficiency Video Coding
Format profile                           : Main@L4@Main
Codec ID                                 : V_MPEGH/ISO/HEVC
Duration                                 : 1 h 34 min
Bit rate                                 : 2 740 kb/s
Width                                    : 1 920 pixels
Height                                   : 1 080 pixels
Display aspect ratio                     : 16:9
Frame rate mode                          : Constant
Frame rate                               : 24.000 FPS
Color space                              : YUV
Chroma subsampling                       : 4:2:0
Bit depth                                : 8 bits
Bits/(Pixel*Frame)                       : 0.055
Stream size                              : 1.81 GiB (88%)
Default                                  : Yes
Forced                                   : No
Color range                              : Limited
Audio #1
ID                                       : 2
Format                                   : AAC LC
Format/Info                              : Advanced Audio Codec Low Complexity
Codec ID                                 : A_AAC-2
Duration                                 : 1 h 34 min
Bit rate                                 : 192 kb/s
Channel(s)                               : 2 channels
Channel layout                           : L R
Sampling rate                            : 44.1 kHz
Frame rate                               : 43.066 FPS (1024 SPF)
Compression mode                         : Lossy
Stream size                              : 130 MiB (6%)
Title                                    : [AAC2.0]
Language                                 : Russian
Default                                  : Yes
Forced                                   : No
Audio #2
ID                                       : 3
Format                                   : AAC LC
Format/Info                              : Advanced Audio Codec Low Complexity
Codec ID                                 : A_AAC-2
Duration                                 : 1 h 34 min
Bit rate                                 : 192 kb/s
Channel(s)                               : 2 channels
Channel layout                           : L R
Sampling rate                            : 44.1 kHz
Frame rate                               : 43.066 FPS (1024 SPF)
Compression mode                         : Lossy
Stream size                              : 128 MiB (6%)
Title                                    : Mandarin [AAC2.0]
Language                                 : Chinese
Default                                  : No
Forced                                   : No
部分资源为软字幕,移动端推荐播放器:MxPlayer,nPlayer,infuse ,其他播放器请自行尝试。
部分资源为软字幕,电脑端推荐播放器:PotPlayer,完美解码,KMPLAYER,其他播放器请自行尝试。






~~~~~~~~~~~~~~~~~~~~~~~~~~~~~~~~~~~~~~~~~
[2019][其它][战争][WEB-1080P]喀秋莎行动[国语配音/中文字幕].Secret.Weapon.2019.1080p.WEB-DL.H265.AAC.2Audio- 2.06GB

【文件列表】:


Secret.Weapon.2019.1080p.WEB-DL.H265.AAC.2Audio-DreamHD.



【下载地址列表】:


游客
文件下载链接就在这里,在您回复评论成功后才能显示。
请勿回复无意义的灌水内容。


下拉页面到最底部回复或者【点击此处快捷回复】,回复后返回此处即可查看下载链接。
如您没注册本站会员,可以点击注册本站,注册后即可回复下载。



软字幕无法在截图上展现,HDR版本/杜比视界版本截图会出现颜色异常,请使用支持的设备播放!






[img][/img]






[img][/img]

(HDR版本/杜比视界版本,截图会出现颜色异常,请使用支持的设备播放)

小贴士:【影视自媒体解说文案请移步:夏至文案解说网 www.xiazhi.vip

上一篇:[2015][欧美][剧情][WEB-1080P]大空头[中文字幕].The.Big.Short.2015.1080p.iTunes.WEB-DL.DD5.1.H264- 9.79GB
下一篇:[2021][大陆][剧情][WEB-1080P]大嫂归来[国语配音/中文字幕].The.Return.of.the.Sister-in-Law.2021.1080p.WEB-DL.H264.AAC-BATWE
回复

使用道具 举报

您需要登录后才可以回帖 登录 | 立即注册

本版积分规则

Archiver|手机版|小众纪录片影视聚合

GMT+8, 2024-7-24 23:59 , Processed in 0.147898 second(s), 13 queries , Gzip On, Redis On.

Powered by 小众纪录片影视聚合 @2010-2023

Copyright © 2010-2024, https://www.xzjlp.com/.


免责说明:本站所有内容链接、图文介绍等均来自于互联网网友分享,本站仅支持web页面展示和文字介绍,绝不提供在线观看和存储服务,也不参与录制、上传、压片。若本站收录内容无意侵犯贵司版权,请发邮件到【a885185#163.com】联系本站,我们将在第一时间删除侵权内容。谢谢!

快速回复 返回顶部 返回列表