小众纪录片影视聚合

 找回密码
 立即注册
查看: 8|回复: 0

[蓝光电影] [2021][大陆][剧情][WEB-1080P]大嫂归来[国语配音/中文字幕].The.Return.of.the.Sister-in-Law.2021.1080p.WEB-DL.H264.AAC-BATWE

[复制链接]

116万

主题

116万

帖子

116万

积分

超级版主

Rank: 8Rank: 8

积分
1167997
发表于 2024-7-9 21:23:12 | 显示全部楼层 |阅读模式


[2021][大陆][剧情][WEB-1080P]大嫂归来[国语配音/中文字幕].The.Return.of.the.Sister-in-Law.2021.1080p.WEB-DL.H264.AAC-BATWE

完整标题:大嫂归来[国语配音/中文字幕].The.Return.of.the.Sister-in-Law.2021.1080p.WEB-DL.H264.AAC-BATWEB 0.98GB
◎标  题 大嫂归来
◎年  代 2021
◎产  地 中国大陆
◎类  别 剧情 / 动作 / 犯罪
◎语  言 汉语普通话
◎上映日期 2021-11-06(中国大陆)
◎IMDb链接 https://www.imdb.com/title//
◎豆瓣评分 4.0/10 (962人评价)
◎豆瓣链接 https://movie.douban.com/subject/35639135/
◎片  长 90分钟
◎导  演 曾黎 Li Zen
◎演  员 徐冬冬 Dongdong Xu
       尹子维 Terence Yin
◎简  介
    天真无邪的少女清澄,为了给家人报仇,被训练成冷血杀手 ,数度杀人后,决定放下怨念...
点击图片可查看大图
软字幕无法在截图上展现,HDR版本/杜比视界版本截图会出现颜色异常,请使用支持的设备播放!
##### MediaInfo ######
General
Unique ID                                : 220740159161625705963809092396691836091 (0xA611021C65DE6016AC7BE291FC154CBB)
Complete name                            : The.Return.of.the.Sister-in-Law.2021.1080p.WEB-DL.H264.AAC-BATWEB.mkv
Duration                                 : 1 h 30 min
Overall bit rate                         : 1 552 kb/s
Video
ID                                       : 1
Format                                   : AVC
Format/Info                              : Advanced Video Codec
Format profile                           : High@L4
Format settings                          : CABAC / 3 Ref Frames
Format settings, CABAC                   : Yes
Format settings, Reference frames        : 3 frames
Codec ID                                 : V_MPEG4/ISO/AVC
Duration                                 : 1 h 30 min
Bit rate                                 : 1 360 kb/s
Width                                    : 1 920 pixels
Height                                   : 816 pixels
Display aspect ratio                     : 2.35:1
Frame rate mode                          : Constant
Frame rate                               : 24.000 FPS
Color space                              : YUV
Chroma subsampling                       : 4:2:0
Bit depth                                : 8 bits
Scan type                                : Progressive
Bits/(Pixel*Frame)                       : 0.036
Stream size                              : 878 MiB (88%)
Language                                 : Chinese
Default                                  : Yes
Forced                                   : No
Color range                              : Limited
Color primaries                          : BT.709
Transfer characteristics                 : BT.709
Matrix coefficients                      : BT.709
Audio
ID                                       : 2
Format                                   : AAC LC
Format/Info                              : Advanced Audio Codec Low Complexity
Codec ID                                 : A_AAC-2
Duration                                 : 1 h 30 min
Bit rate                                 : 192 kb/s
Channel(s)                               : 2 channels
Channel layout                           : L R
Sampling rate                            : 44.1 kHz
Frame rate                               : 43.066 FPS (1024 SPF)
Compression mode                         : Lossy
Stream size                              : 123 MiB (12%)
Default                                  : No
Forced                                   : No
部分资源为软字幕,移动端推荐播放器:MxPlayer,nPlayer,infuse ,其他播放器请自行尝试。
部分资源为软字幕,电脑端推荐播放器:PotPlayer,完美解码,KMPLAYER,其他播放器请自行尝试。






~~~~~~~~~~~~~~~~~~~~~~~~~~~~~~~~~~~~~~~~~
[2021][大陆][剧情][WEB-1080P]大嫂归来[国语配音/中文字幕].The.Return.of.the.Sister-in-Law.2021.1080p.WEB-DL.H264.AAC-BATWE

【文件列表】:


The.Return.of.the.Sister-in-Law.2021.1080p.WEB-DL.H264.AAC-BATWEB.



【下载地址列表】:


游客
文件下载链接就在这里,在您回复评论成功后才能显示。
请勿回复无意义的灌水内容。


下拉页面到最底部回复或者【点击此处快捷回复】,回复后返回此处即可查看下载链接。
如您没注册本站会员,可以点击注册本站,注册后即可回复下载。



软字幕无法在截图上展现,HDR版本/杜比视界版本截图会出现颜色异常,请使用支持的设备播放!






[img][/img]






[img][/img]

(HDR版本/杜比视界版本,截图会出现颜色异常,请使用支持的设备播放)

小贴士:【影视自媒体解说文案请移步:夏至文案解说网 www.xiazhi.vip

上一篇:[2019][其它][战争][WEB-1080P]喀秋莎行动[国语配音/中文字幕].Secret.Weapon.2019.1080p.WEB-DL.H265.AAC.2Audio- 2.06GB
下一篇:[2015][其它][剧情][BD-1080P]绝命海拔[国英多音轨/中文字幕/特效字幕].Everest.2015.BluRay.1080p.TrueHD7.1.x264- 17.50GB
回复

使用道具 举报

您需要登录后才可以回帖 登录 | 立即注册

本版积分规则

Archiver|手机版|小众纪录片影视聚合

GMT+8, 2024-7-25 02:06 , Processed in 0.067364 second(s), 13 queries , Gzip On, Redis On.

Powered by 小众纪录片影视聚合 @2010-2023

Copyright © 2010-2024, https://www.xzjlp.com/.


免责说明:本站所有内容链接、图文介绍等均来自于互联网网友分享,本站仅支持web页面展示和文字介绍,绝不提供在线观看和存储服务,也不参与录制、上传、压片。若本站收录内容无意侵犯贵司版权,请发邮件到【a885185#163.com】联系本站,我们将在第一时间删除侵权内容。谢谢!

快速回复 返回顶部 返回列表