小众纪录片影视聚合

 找回密码
 立即注册
查看: 3|回复: 0

[蓝光电影] [2007][韩国][悬疑][WEB-1080P]我们的社区[中文字幕].Our.Town.2007.1080p.CATCHPLAY.WEB-DL.AAC2.0.H.264- 3.24GB

[复制链接]

116万

主题

116万

帖子

116万

积分

超级版主

Rank: 8Rank: 8

积分
1167997
发表于 2024-7-9 21:24:57 | 显示全部楼层 |阅读模式


[2007][韩国][悬疑][WEB-1080P]我们的社区[中文字幕].Our.Town.2007.1080p.CATCHPLAY.WEB-DL.AAC2.0.H.264- 3.24GB

完整标题:我们的社区[中文字幕].Our.Town.2007.1080p.CATCHPLAY.WEB-DL.AAC2.0.H.264-DreamHD 3.24GB
◎标  题 我们的社区
◎译  名 Our Town
◎片  名 우리동네
◎年  代 2007
◎产  地 韩国
◎类  别 悬疑 / 惊悚 / 犯罪
◎语  言 韩语
◎上映日期 2007-11-29(韩国)
◎IMDb链接 https://www.imdb.com/title/tt1201168/
◎豆瓣评分 6.5/10 (2666人评价)
◎豆瓣链接 https://movie.douban.com/subject/3025840/
◎片  长 114分钟
◎导  演 郑吉永 Gil-young Jung
◎编  剧 毛弘镇 Hong-jin Mo
       郑吉永 Gil-young Jung
◎演  员 吴万石 Man-seok Oh
       李善均 Seon-gyun Lee
       柳德焕 Deok-Hwan Ryu
       文佳煐 Ka-young Mun
       朴闵英 Min-young Park
       高达美 Da-mi Ko
       姜仁锡 Lee-suk Kang
       宋永世 Song Yo-sep
       李茂生 Moo-Saeng Lee
       车顺裴 Cha Soon-bae
       郑仁基 In-gi Jeong
       毛弘镇 Hong-jin Mo
◎简  介
    2004年,在韩国中区寺草洞一个宁静而落后的社区,接连发生五起猎奇杀人事件。死者全部为女性,生前无一例外遭到残酷折磨,死后更被凶手固定在户外呈现十字架受难的模样。专案组组长在新(李善均 饰)受命调查此案,却始终没有任何头绪,加上来自上层的压力,令他备为苦恼。在新有个好朋友名叫景柱(吴满锡 饰),是一个穷困潦倒的推理作家。他以寻找素材的名义从在新那里了解到常人无法接触的卷宗资料,却直觉发现这是一宗模仿杀人连环案件。在新也从前辈那里了解到十年前发生过的手法类似的一起沉疴旧案。                                    一切都指向景柱和在新的过去,血腥恐怖的迷雾背后,究竟隐藏着怎样可怕的秘密和事实真相呢?
点击图片可查看大图
软字幕无法在截图上展现,HDR版本/杜比视界版本截图会出现颜色异常,请使用支持的设备播放!
##### MediaInfo ######
General
Unique ID                                : 14210125711480417101082544527808051503 (0xAB0C54A1CEDE64DDBFD592BAF3AB92F)
Complete name                            : Our.Town.2007.1080p.CATCHPLAY.WEB-DL.AAC2.0.H.264-DreamHD.mkv
Duration                                 : 1 h 52 min
Overall bit rate mode                    : Variable
Overall bit rate                         : 4 131 kb/s
Video
ID                                       : 1
Format                                   : AVC
Format/Info                              : Advanced Video Codec
Format profile                           : [email protected]
Format settings                          : CABAC / 4 Ref Frames
Format settings, CABAC                   : Yes
Format settings, Reference frames        : 4 frames
Format settings, GOP                     : M=3, N=48
Codec ID                                 : V_MPEG4/ISO/AVC
Duration                                 : 1 h 52 min
Bit rate mode                            : Variable
Bit rate                                 : 4 000 kb/s
Maximum bit rate                         : 6 000 kb/s
Width                                    : 1 920 pixels
Height                                   : 1 080 pixels
Display aspect ratio                     : 16:9
Frame rate mode                          : Constant
Frame rate                               : 24.000 FPS
Color space                              : YUV
Chroma subsampling                       : 4:2:0
Bit depth                                : 8 bits
Scan type                                : Progressive
Bits/(Pixel*Frame)                       : 0.080
Stream size                              : 3.14 GiB (97%)
Language                                 : Korean
Default                                  : Yes
Forced                                   : No
Audio
ID                                       : 2
Format                                   : AAC LC
Format/Info                              : Advanced Audio Codec Low Complexity
Codec ID                                 : A_AAC-2
Duration                                 : 1 h 52 min
Bit rate                                 : 128 kb/s
Channel(s)                               : 2 channels
Channel layout                           : L R
Sampling rate                            : 48.0 kHz
Frame rate                               : 46.875 FPS (1024 SPF)
Compression mode                         : Lossy
Stream size                              : 103 MiB (3%)
Language                                 : Korean
Default                                  : Yes
Forced                                   : No
Text #1
ID                                       : 3
Format                                   : UTF-8
Codec ID                                 : S_TEXT/UTF8
Codec ID/Info                            : UTF-8 Plain Text
Duration                                 : 1 h 48 min
Bit rate                                 : 62 b/s
Frame rate                               : 0.289 FPS
Count of elements                        : 1871
Stream size                              : 49.6 KiB (0%)
Language                                 : Chinese
Default                                  : No
Forced                                   : No
Text #2
ID                                       : 4
Format                                   : UTF-8
Codec ID                                 : S_TEXT/UTF8
Codec ID/Info                            : UTF-8 Plain Text
Duration                                 : 1 h 48 min
Bit rate                                 : 26 b/s
Frame rate                               : 0.133 FPS
Count of elements                        : 864
Stream size                              : 21.2 KiB (0%)
Title                                    : Taiwan
Language                                 : Chinese
Default                                  : No
Forced                                   : No
部分资源为软字幕,移动端推荐播放器:MxPlayer,nPlayer,infuse ,其他播放器请自行尝试。
部分资源为软字幕,电脑端推荐播放器:PotPlayer,完美解码,KMPLAYER,其他播放器请自行尝试。






~~~~~~~~~~~~~~~~~~~~~~~~~~~~~~~~~~~~~~~~~
[2007][韩国][悬疑][WEB-1080P]我们的社区[中文字幕].Our.Town.2007.1080p.CATCHPLAY.WEB-DL.AAC2.0.H.264- 3.24GB

【文件列表】:


Our.Town.2007.1080p.CATCHPLAY.WEB-DL.AAC2.0.H.264-DreamHD.



【下载地址列表】:


游客
文件下载链接就在这里,在您回复评论成功后才能显示。
请勿回复无意义的灌水内容。


下拉页面到最底部回复或者【点击此处快捷回复】,回复后返回此处即可查看下载链接。
如您没注册本站会员,可以点击注册本站,注册后即可回复下载。



软字幕无法在截图上展现,HDR版本/杜比视界版本截图会出现颜色异常,请使用支持的设备播放!






[img][/img]






[img][/img]

(HDR版本/杜比视界版本,截图会出现颜色异常,请使用支持的设备播放)

小贴士:【影视自媒体解说文案请移步:夏至文案解说网 www.xiazhi.vip

上一篇:[2019][欧美][剧情][WEB-4K]哈丽特[国粤英多音轨/简繁英字幕].Harriet.2019.Bluray.2160p.TrueHD7.1.HDR.x265.10bit- 23.
下一篇:[更 早][日本][剧情][WEB-4K]日本沉没[简繁英字幕].Submersion.of.Japan.1973.BluRay.2160p.DTS-HD.MA5.1.SDR.x265.10bit-Dr
回复

使用道具 举报

您需要登录后才可以回帖 登录 | 立即注册

本版积分规则

Archiver|手机版|小众纪录片影视聚合

GMT+8, 2024-7-25 02:33 , Processed in 0.712922 second(s), 12 queries , Gzip On, Redis On.

Powered by 小众纪录片影视聚合 @2010-2023

Copyright © 2010-2024, https://www.xzjlp.com/.


免责说明:本站所有内容链接、图文介绍等均来自于互联网网友分享,本站仅支持web页面展示和文字介绍,绝不提供在线观看和存储服务,也不参与录制、上传、压片。若本站收录内容无意侵犯贵司版权,请发邮件到【a885185#163.com】联系本站,我们将在第一时间删除侵权内容。谢谢!

快速回复 返回顶部 返回列表